Browse Collections Artists Sources   Search Dates

Add Show    List Management    Help


Phish 07/07/13
Saratoga Performing Arts Center, Saratoga Springs, NY
Comments Add Comment    Source Collectors    Add to Collection    Add to Want List    History
Source # 125013 Other Sources
Entered by Jason Sobel
Checksums 16bit-FFP
Disc Counts 0 / 0
Media Size Compressed: 934.08 MB (979453587 bytes)
Date Circulated
Date Added
07/11/2013
07/11/2013
Source Summary flac16; Schoeps MK41 > KC5 > CMC6 > Sonosax SX-R4; WAV > USB > Macbook Pro > Wave Editor (tracking, fades, resample/dither to 16 bit/44.1k) > XAct (FLAC 8); Taped & Transferred by Andy Murray 
Source Information - Download Text | Download Zip
Phish
2013-07-07
Saratoga Performing Arts Center
Saratoga Springs, NY

mics were in the tapers section left of center
mk41s were DIN

Source:
Schoeps MK41>KC5>CMC6>Sonosax SX-R4 (24bit/96khz)

Lineage:
WAV>USB>Macbook Pro>Wave Editor(tracking,fades,resample(izotope)/dither(mbit+)to 16 bit/44.1k)>XAct(FLAC 8,ffp,fix sbe)

Taped by: Andy Murray
Transferred by: Andy Murray

Set 1:
01. crowd
02. AC/DC Bag >
03. Back on the Train >
04. Divided Sky
05. Free >
06. It's Ice >
07. Mound
08. Maze
09. Limb By Limb
10. Walls of the Cave

Set 2:

01. crowd
02. Down with Disease [1] >
03. Ghost [2] >
04. Piper [3] >
05. Wading in the Velvet Sea >
06. Run Like an Antelope [4] >
07. Meatstick [5] >
08. You Enjoy Myself

Encore:
09. encore break
10. Loving Cup

[1] Unfinished.
[2] Jumpin' Jack Flash teases.
[3] DEG tease from Trey.
[4] Lyrics changed to reference Meatstick.
[5] Japanese lyrics.

Notes: Trey teased Call to the Post prior to the start of DWD. DWD was unfinished. Ghost contained Jumpin' Jack Flash teases. Piper contained a DEG tease from Trey. The lyrics to Antelope were changed throughout to reference Meatstick that would ensue. Meatstick included the Japanese lyrics.

;flac fingerprints generated by xACT 2.23 on 2013-07-11 19:22:35 -0400

ph2013-07-07_mk41_1644_d1t01.flac:b05975293ec350765398ca242480e674
ph2013-07-07_mk41_1644_d1t02.flac:5bebd830905b0e60eeac076393d50da2
ph2013-07-07_mk41_1644_d1t03.flac:53925725393bb5d5e36489c09eb002a1
ph2013-07-07_mk41_1644_d1t04.flac:ee5caa8abdd325909f141c2a2e04128c
ph2013-07-07_mk41_1644_d1t05.flac:4e31e234e7aefdd78a83b74ff29f7b11
ph2013-07-07_mk41_1644_d1t06.flac:73b47c150b5f57a1146765a0ad4848cf
ph2013-07-07_mk41_1644_d1t07.flac:47f595bd2684b6885cfd48449b9914fc
ph2013-07-07_mk41_1644_d1t08.flac:5b2fc09585b7720968e211483db5e3da
ph2013-07-07_mk41_1644_d1t09.flac:d61c5b6a6d2edc91d7f971a1e53751dd
ph2013-07-07_mk41_1644_d1t10.flac:4df8186524b3e971084c2944da1ffcc4
ph2013-07-07_mk41_1644_d2t01.flac:9f454ee2be441692596a0ed017fcd2b4
ph2013-07-07_mk41_1644_d2t02.flac:8950b19a1bb5d393a06b5138a5a28a8e
ph2013-07-07_mk41_1644_d2t03.flac:4f23bd4bed0fa551175fd13601ccd22e
ph2013-07-07_mk41_1644_d2t04.flac:7fee5a0e59a26725f559441689deb511
ph2013-07-07_mk41_1644_d2t05.flac:89385c2b5e5d8d1be182c43078fd55e4
ph2013-07-07_mk41_1644_d2t06.flac:121fe885103f2f9f65c64bd679b333f0
ph2013-07-07_mk41_1644_d2t07.flac:dfe43b48fb98049996a85c3333fe3ba2
ph2013-07-07_mk41_1644_d2t08.flac:19b05fb115bc16201a53ca0b784fc958
ph2013-07-07_mk41_1644_d2t09.flac:d1db4fabe3eec5f86b0c979cd83a9286
ph2013-07-07_mk41_1644_d2t10.flac:92d0d0d1768b946195784eb546cf0cfd

    length     expanded size    cdr  WAVE problems  fmt   ratio  filename
     1:30.71       16043036 B   ---   --   -----    wav  1.0000  ph2013-07-07_mk41_1644_d1t01.wav
     6:57.58       73695260 B   ---   --   -----    wav  1.0000  ph2013-07-07_mk41_1644_d1t02.wav
    10:07.67      107232428 B   ---   --   -----    wav  1.0000  ph2013-07-07_mk41_1644_d1t03.wav
    16:47.71      177801836 B   ---   --   -----    wav  1.0000  ph2013-07-07_mk41_1644_d1t04.wav
     7:24.50       78439244 B   ---   --   -----    wav  1.0000  ph2013-07-07_mk41_1644_d1t05.wav
     7:43.66       81828476 B   ---   --   -----    wav  1.0000  ph2013-07-07_mk41_1644_d1t06.wav
     6:07.07       64755308 B   ---   --   -----    wav  1.0000  ph2013-07-07_mk41_1644_d1t07.wav
    10:50.71      114827036 B   ---   --   -----    wav  1.0000  ph2013-07-07_mk41_1644_d1t08.wav
     8:38.36       91459916 B   ---   --   -----    wav  1.0000  ph2013-07-07_mk41_1644_d1t09.wav
    12:32.08      132671660 B   ---   --   -----    wav  1.0000  ph2013-07-07_mk41_1644_d1t10.wav
     0:58.56       10362956 B   ---   --   -----    wav  1.0000  ph2013-07-07_mk41_1644_d2t01.wav
    14:01.55      148481804 B   ---   --   -----    wav  1.0000  ph2013-07-07_mk41_1644_d2t02.wav
    11:07.15      117694124 B   ---   --   -----    wav  1.0000  ph2013-07-07_mk41_1644_d2t03.wav
     9:49.55      104029004 B   ---   --   -----    wav  1.0000  ph2013-07-07_mk41_1644_d2t04.wav
     5:41.65       60305324 B   ---   --   -----    wav  1.0000  ph2013-07-07_mk41_1644_d2t05.wav
     9:50.12      104104268 B   ---   --   -----    wav  1.0000  ph2013-07-07_mk41_1644_d2t06.wav
     6:38.03       70214300 B   ---   --   -----    wav  1.0000  ph2013-07-07_mk41_1644_d2t07.wav
    19:46.49      209325692 B   ---   --   -----    wav  1.0000  ph2013-07-07_mk41_1644_d2t08.wav
     2:16.10       24013964 B   ---   --   -----    wav  1.0000  ph2013-07-07_mk41_1644_d2t09.wav
     6:50.32       72399308 B   ---   --   -----    wav  1.0000  ph2013-07-07_mk41_1644_d2t10.wav
   175:42.32     1859684944 B                            1.0000  (20 files)



Show Checksums
16bit-FFP
ph2013-07-07_mk41_1644_d1t01.flac:b05975293ec350765398ca242480e674
ph2013-07-07_mk41_1644_d1t02.flac:5bebd830905b0e60eeac076393d50da2
ph2013-07-07_mk41_1644_d1t03.flac:53925725393bb5d5e36489c09eb002a1
ph2013-07-07_mk41_1644_d1t04.flac:ee5caa8abdd325909f141c2a2e04128c
ph2013-07-07_mk41_1644_d1t05.flac:4e31e234e7aefdd78a83b74ff29f7b11
ph2013-07-07_mk41_1644_d1t06.flac:73b47c150b5f57a1146765a0ad4848cf
ph2013-07-07_mk41_1644_d1t07.flac:47f595bd2684b6885cfd48449b9914fc
ph2013-07-07_mk41_1644_d1t08.flac:5b2fc09585b7720968e211483db5e3da
ph2013-07-07_mk41_1644_d1t09.flac:d61c5b6a6d2edc91d7f971a1e53751dd
ph2013-07-07_mk41_1644_d1t10.flac:4df8186524b3e971084c2944da1ffcc4
ph2013-07-07_mk41_1644_d2t01.flac:9f454ee2be441692596a0ed017fcd2b4
ph2013-07-07_mk41_1644_d2t02.flac:8950b19a1bb5d393a06b5138a5a28a8e
ph2013-07-07_mk41_1644_d2t03.flac:4f23bd4bed0fa551175fd13601ccd22e
ph2013-07-07_mk41_1644_d2t04.flac:7fee5a0e59a26725f559441689deb511
ph2013-07-07_mk41_1644_d2t05.flac:89385c2b5e5d8d1be182c43078fd55e4
ph2013-07-07_mk41_1644_d2t06.flac:121fe885103f2f9f65c64bd679b333f0
ph2013-07-07_mk41_1644_d2t07.flac:dfe43b48fb98049996a85c3333fe3ba2
ph2013-07-07_mk41_1644_d2t08.flac:19b05fb115bc16201a53ca0b784fc958
ph2013-07-07_mk41_1644_d2t09.flac:d1db4fabe3eec5f86b0c979cd83a9286
ph2013-07-07_mk41_1644_d2t10.flac:92d0d0d1768b946195784eb546cf0cfd

Comments
Add Comment
Other Sources (comments)
flac16; DPA 4023 >... (0) flac24; DPA 4011 >... (0) flac16; DPA 4011 >... (0) flac24; Schoeps MK41... (0) flac16; Schoeps MK41... (0) flac24; Schoeps MK41... (0) flac24; DPA 4023 >... (0) flac16; Neumann... (0) flac16; Neumann... (0) flac16; DPA 4023 >... (0) flac24; DPA 4023 >... (0) flac16; DPA 4052 >... (0) flac24; DPA 4052 >... (0) flac16; DPA 4023 >... (0) flac24; DPA 4023 >... (0)
Date User Comment