Browse Collections Artists Sources   Search Dates

Add Show    List Management    Help


Grateful Dead 10/19/80
Saenger Performing Arts Center, New Orleans, LA
Comments Add Comment    Source Collectors    Add to Collection    Add to Want List    History
Source # 125234 Other Sources
Entered by Matt Vernon
Checksums ffp , flac-md5
Disc Counts 0 / 0
Media Size Compressed: 566 MB (593498112 bytes)
Uncompressed: 947.75 MB (993788692 bytes)
Date Circulated
Date Added
07/28/2013
07/28/2013
Source Summary flac16; Set 3 Source: Unknown AUD, lo-gen tape kindly provided by Seaweed1010. Transfer: XLIIS > Nakamichi CR-5A > Edirol FA-66 > Wavelab 2448 > R8Brain > CD-Wave > TLH > FLAC 1644 tagged, Andrew F. 07/2013 
  Archive
Source Information - Download Text | Download Zip
GRATEFUL DEAD
Saenger Theatre
New Orleans LA
10-19-1980
Third Set

s3t01 Scarlet Begonias >
s3t02 Fire on the Mountain
s3t03 Samson & Delilah
s3t04 Terrapin >
s3t05 Brent Jam (w/o Jerry) >
s3t06 Drums >
s3t07 Space >
s3t08 Truckin' >
s3t09 Wharf Rat >
s3t10 Sugar Magnolia >
s3t11 Good Lovin'

Source: Unknown AUD, lo-gen tape kindly provided by Seaweed1010.

Transfer: XLIIS > Nakamichi CR-5A > Edirol FA-66 > Wavelab 2448 >
R8Brain > CD-Wave > TLH > FLAC 1644 tagged, Andrew F. 07/2013

Note: Does not match ID-13469. ID-13469 patch, Drums 2:52 > 5:24.

    length     expanded size    cdr  WAVE problems  fmt   ratio  filename
     9:24.45       99595484 B   ---   --   ---xx   flac  0.6350  gd1980-10-19s3t01.flac
    10:41.06      113086556 B   ---   --   ---xx   flac  0.6276  gd1980-10-19s3t02.flac
     8:07.28       85972700 B   ---   --   ---xx   flac  0.6329  gd1980-10-19s3t03.flac
    11:39.11      123329516 B   ---   --   ---xx   flac  0.6038  gd1980-10-19s3t04.flac
     3:24.33       36063260 B   ---   --   ---xx   flac  0.6194  gd1980-10-19s3t05.flac
     9:46.51      103490396 B   ---   --   ---xx   flac  0.5566  gd1980-10-19s3t06.flac
     8:05.54       85681052 B   ---   --   ---xx   flac  0.5164  gd1980-10-19s3t07.flac
     7:26.68       78834380 B   ---   --   ---xx   flac  0.6123  gd1980-10-19s3t08.flac
    10:56.38      115807820 B   ---   --   ---xx   flac  0.5666  gd1980-10-19s3t09.flac
     6:18.70       66843884 B   ---   --   ---xx   flac  0.6066  gd1980-10-19s3t10.flac
     8:02.25       85083644 B   ---   --   ---xx   flac  0.6083  gd1980-10-19s3t11.flac
    93:53.54      993788692 B                            0.5972  (11 files)

No errors occured.


Show Checksums
ffp
gd1980-10-19s3t01.flac:ecfa3bb97d1e05077c340d500385bd92
gd1980-10-19s3t02.flac:a4167f4ea67ccc58d94cf779401d6793
gd1980-10-19s3t03.flac:d725fb8e0687b85bb917bec2a3cbddd2
gd1980-10-19s3t04.flac:0da22236f3a6635a6cfc83072f3251e7
gd1980-10-19s3t05.flac:8b2bb955fc98f122e1b18ae54e24eaff
gd1980-10-19s3t06.flac:9c34e5ba91576400ba28ad72e21dd645
gd1980-10-19s3t07.flac:7810bcbc5184239b5c70994fb9fc3ed7
gd1980-10-19s3t08.flac:6d395f4e58c3fccd540ec82248519bba
gd1980-10-19s3t09.flac:7fe1f41df4f8e875602ff90794376897
gd1980-10-19s3t10.flac:46be9f68e7d0e4afcc616161c15035fb
gd1980-10-19s3t11.flac:5d85cfd627ad63ab4cf3eed3700eca7a
flac-md5
7fbbca0ea7d463a8d54be379948e08ae *gd1980-10-19s3t01.flac
73a9d946918d2fa72a4de51ebcc5daf5 *gd1980-10-19s3t02.flac
2c384f72dfd9c4fc4b589a124d796f75 *gd1980-10-19s3t03.flac
ac035e197b463d0274bfb807f8cf1d55 *gd1980-10-19s3t04.flac
147e5a17cc611ee48eb0a42f223a91d1 *gd1980-10-19s3t05.flac
25dcfec1ba7113806c72491c8203b5e4 *gd1980-10-19s3t06.flac
d011bacee39a129259271dc2810eebf6 *gd1980-10-19s3t07.flac
a75eb0c9a8ba2caabed55ff71650e8ad *gd1980-10-19s3t08.flac
7fe6da5e428b9e8feb147f2348965d5e *gd1980-10-19s3t09.flac
37d15b01a3e92a39151f80a84d27316b *gd1980-10-19s3t10.flac
6f5dabfe65637256179aa2bf7c51d626 *gd1980-10-19s3t11.flac

Comments
Add Comment
Other Sources (comments)
unknown FOB aud source... (0) AUDMC(unknown mics) > C > C... (0) flac24; AUD: 2x... (1) flac16; AUD: 2x... (1) flac16/48kHz; s1... (0)
Date User Comment
09/06/2013 nfagdtrfb This is upgraded by ID-125632 and ID-125633, appears to derive from the same mics.