Browse Collections Artists Sources   Search Dates

Add Show    List Management    Help


Phish 08/05/13
Hollywood Bowl, Hollywood, CA
Comments Add Comment    Source Collectors    Add to Collection    Add to Want List    History
Source # 125496 Other Sources
Entered by Jason Sobel
Checksums 16bit-FFP , 16bit-FLAC-md5
Disc Counts 0 / 0
Media Size Compressed: 769.69 MB (807075708 bytes)
Date Circulated
Date Added
08/18/2013
08/18/2013
Source Summary flac16; AKG Ck61 > Naiant Actives/PFA > Naiant Littlebox > Tascam DR-680 (24/48); DR-680 > Audacity (amplify, dither, resample) > CD Wave > TLH; Taped & Transferred by obaaron 
Source Information - Download Text | Download Zip
Phish
August 5th, 2013 (Mon)
Hollywood Bowl
Los Angeles, CA

Source: AKG Ck61(DIN) > Naiant Actives/PFA > Naiant Littlebox > Tascam DR-680 (24/48)
Location: OTS/ROC
Transfer: DR-680 > Audacity (amplify,dither,resample) > cdwav (track) > TLH (flac,meta)

Recorded, transfered, and mastered by: obaaron

Set 1

01 AC/DC Bag
02 The Moma Dance
03 Sparkle
04 Stealing Time From The Faulty Plan
05 Lawn Boy
06 Wolfman's Brother
07 Roses Are Free
08 Scent Of A Mule
09 Ocelot
10 Cavern
11 While My Guitar Gently Weeps

Set 2

01 Chalk Dust Torture*
02 Golden Age >
03 Birds Of A Feather
04 Sand
05 Down With Disease >
06 My Friend, My Friend >
07 Harry Hood >
08 Character Zero
Encore
09 Loving Cup

Notes - *Level adjustments

phish2013-08-05d1t01.flac:5aa0caccfb953e6fe67ed6d9b14397e2
phish2013-08-05d1t02.flac:3fdf964ef725b43da3642135563280de
phish2013-08-05d1t03.flac:a81a22c81c1998c7b58dcabe9afa741a
phish2013-08-05d1t04.flac:72973795dff1c8bd0a93821c42ef36e9
phish2013-08-05d1t05.flac:4652219df4882c18431b95ae4e6320eb
phish2013-08-05d1t06.flac:bb4cfffd200ac04a59af0aad46d1840a
phish2013-08-05d1t07.flac:7e4f9793d3250f027570f3593135814f
phish2013-08-05d1t08.flac:2ad5eb8e3e63aa4ac8e22cb563b204f4
phish2013-08-05d1t09.flac:62d317a10c89c60ce64e21c29ffed93b
phish2013-08-05d1t10.flac:b1d8e926e5512afad9ab86b39260d848
phish2013-08-05d1t11.flac:68b60533b885a100c0e0688d4b5b8a42
phish2013-08-05d2t01.flac:806d3bc3233387541f9cff123e514e64
phish2013-08-05d2t02.flac:83a79b737adf77cc25a28b8b48a369a2
phish2013-08-05d2t03.flac:a52d795cd8113aa17ff387590c29aace
phish2013-08-05d2t04.flac:66eecf7221bde7797215881ce3a7c53f
phish2013-08-05d2t05.flac:b096db36fb2bbfc1cb0e68ba96e49df5
phish2013-08-05d2t06.flac:9ade9da2517f79b10d6696409a9056db
phish2013-08-05d2t07.flac:e8033308e7bb1da8f71b8bd90733881d
phish2013-08-05d2t08.flac:3a812bb3d2f9f0d48270caf39081e08d
phish2013-08-05d2t09.flac:84b7f3c2d564797d65c1e1dc587fb112

No errors occured.

   length     expanded size    cdr  WAVE problems  fmt   ratio  filename
     6:32.54       69275852 B   ---   --   ---xx   flac  0.4905  phish2013-08-05d1t01.flac
     7:00.53       74212700 B   ---   --   ---xx   flac  0.4947  phish2013-08-05d1t02.flac
     4:00.66       42491276 B   ---   --   ---xx   flac  0.4811  phish2013-08-05d1t03.flac
     6:22.32       67460108 B   ---   --   ---xx   flac  0.5073  phish2013-08-05d1t04.flac
     3:08.51       33283196 B   ---   --   ---xx   flac  0.4004  phish2013-08-05d1t05.flac
     8:40.29       91796252 B   ---   --   ---xx   flac  0.4899  phish2013-08-05d1t06.flac
     5:10.01       54686396 B   ---   --   ---xx   flac  0.5139  phish2013-08-05d1t07.flac
     9:36.17      101646428 B   ---   --   ---xx   flac  0.4565  phish2013-08-05d1t08.flac
     9:55.57      105092108 B   ---   --   ---xx   flac  0.4950  phish2013-08-05d1t09.flac
     4:43.51       50041196 B   ---   --   ---xx   flac  0.5207  phish2013-08-05d1t10.flac
     6:59.20       73958684 B   ---   --   ---xx   flac  0.4774  phish2013-08-05d1t11.flac
     6:08.54       65042252 B   ---   --   ---xx   flac  0.5093  phish2013-08-05d2t01.flac
     8:45.15       92645324 B   ---   --   ---xx   flac  0.4914  phish2013-08-05d2t02.flac
     7:15.23       76788140 B   ---   --   ---xx   flac  0.4947  phish2013-08-05d2t03.flac
     9:18.19       98475932 B   ---   --   ---xx   flac  0.4828  phish2013-08-05d2t04.flac
     9:51.06      104266556 B   ---   --   ---xx   flac  0.4882  phish2013-08-05d2t05.flac
     5:41.25       60211244 B   ---   --   ---xx   flac  0.4812  phish2013-08-05d2t06.flac
    22:31.66      238471676 B   ---   --   ---xx   flac  0.4488  phish2013-08-05d2t07.flac
     8:24.40       88999724 B   ---   --   ---xx   flac  0.4940  phish2013-08-05d2t08.flac
     7:46.36       82287116 B   ---   --   ---xx   flac  0.4917  phish2013-08-05d2t09.flac
   157:53.40     1671132160 B                            0.4829  (20 files)

No errors occured.


Show Checksums
16bit-FFP
phish2013-08-05d1t01.flac:5aa0caccfb953e6fe67ed6d9b14397e2
phish2013-08-05d1t02.flac:3fdf964ef725b43da3642135563280de
phish2013-08-05d1t03.flac:a81a22c81c1998c7b58dcabe9afa741a
phish2013-08-05d1t04.flac:72973795dff1c8bd0a93821c42ef36e9
phish2013-08-05d1t05.flac:4652219df4882c18431b95ae4e6320eb
phish2013-08-05d1t06.flac:bb4cfffd200ac04a59af0aad46d1840a
phish2013-08-05d1t07.flac:7e4f9793d3250f027570f3593135814f
phish2013-08-05d1t08.flac:2ad5eb8e3e63aa4ac8e22cb563b204f4
phish2013-08-05d1t09.flac:62d317a10c89c60ce64e21c29ffed93b
phish2013-08-05d1t10.flac:b1d8e926e5512afad9ab86b39260d848
phish2013-08-05d1t11.flac:68b60533b885a100c0e0688d4b5b8a42
phish2013-08-05d2t01.flac:806d3bc3233387541f9cff123e514e64
phish2013-08-05d2t02.flac:83a79b737adf77cc25a28b8b48a369a2
phish2013-08-05d2t03.flac:a52d795cd8113aa17ff387590c29aace
phish2013-08-05d2t04.flac:66eecf7221bde7797215881ce3a7c53f
phish2013-08-05d2t05.flac:b096db36fb2bbfc1cb0e68ba96e49df5
phish2013-08-05d2t06.flac:9ade9da2517f79b10d6696409a9056db
phish2013-08-05d2t07.flac:e8033308e7bb1da8f71b8bd90733881d
phish2013-08-05d2t08.flac:3a812bb3d2f9f0d48270caf39081e08d
phish2013-08-05d2t09.flac:84b7f3c2d564797d65c1e1dc587fb112
16bit-FLAC-md5
e1c7fdef982ae20f0c506aab58f7419f *phish2013-08-05d1t01.flac
8d7d4943c231f9f1b27815d574088470 *phish2013-08-05d1t02.flac
db162c4366a617babe1f3c500c3abd8b *phish2013-08-05d1t03.flac
d824757757d85540fd28c256057de290 *phish2013-08-05d1t04.flac
f4477a6a284b79ee71e5b730b9cf00a6 *phish2013-08-05d1t05.flac
843aecf9c3d8e462c29d96f1a960aa0a *phish2013-08-05d1t06.flac
80b619e388f1447521b4c4edb0b74714 *phish2013-08-05d1t07.flac
8ff98bb433acca3fab0bccee6fbf8d61 *phish2013-08-05d1t08.flac
8723cc0dfdb06ac7a75152cf327f9dee *phish2013-08-05d1t09.flac
522d0d9bb964189bdd0293472b04b294 *phish2013-08-05d1t10.flac
34ec8a0c61f2536f04767306d728a163 *phish2013-08-05d1t11.flac
9ad93cd7ade8aa9f6e90e20f8c2f2ad1 *phish2013-08-05d2t01.flac
fb521c7f104915e3840ba1461c7c076a *phish2013-08-05d2t02.flac
bd5969aff78e5200c03964d662424775 *phish2013-08-05d2t03.flac
ab3877e0b4a9aa3fd6143fce8d020887 *phish2013-08-05d2t04.flac
9e8dfc77894b37a200c6025ca77f3f10 *phish2013-08-05d2t05.flac
6b0f7be34980ff5eab615653ae26f0d1 *phish2013-08-05d2t06.flac
8f92f9e3772084c59720dd55bc7dca3c *phish2013-08-05d2t07.flac
ce26501a6ff28a7fb8688c4d87473b06 *phish2013-08-05d2t08.flac
da343401e1eb620f31a0d4c7457a88a1 *phish2013-08-05d2t09.flac

Comments
Add Comment
Other Sources (comments)
flac16; Schoeps... (1) flac16; Neumann... (0) flac16; AKG c422 >... (0) flac24; AKG c422 >... (0) flac16; AKG... (0) flac1648... (0) flac2448... (0)
Date User Comment