Browse Collections Artists Sources   Search Dates

Add Show    List Management    Help


Phish 08/05/13
Hollywood Bowl, Hollywood, CA
Comments Add Comment    Source Collectors    Add to Collection    Add to Want List    History
Source # 125497 Other Sources
Entered by Jason Sobel
Checksums 16bit-FFP , 16bit-FLAC-md5
Disc Counts 0 / 0
Media Size Compressed: 810.28 MB (849638584 bytes)
Date Circulated
Date Added
08/18/2013
08/18/2013
Source Summary flac16; AKG c460b/ck63 > Naiant Tinybox > Tascam DR-680 (24/48); DR-680 > Audacity (amplify, dither, resample) > CD Wave > TLH; Taped & Transferred by obaaron 
Source Information - Download Text | Download Zip
Phish
August 5th, 2013 (Mon)
Hollywood Bowl
Los Angeles, CA

Source: AKG c460b/ck63 (DINa) > XLR > Naiant Tinybox > Tascam DR-680 (24/48)
Location: OTS/ROC/~7.5'high
Transfer: DR-680 > Audacity (amplify,dither,resample) > cdwav (track) > TLH (flac,meta)

Recorded, transfered, and mastered by: obaaron

Set 1

01 AC/DC Bag
02 The Moma Dance
03 Sparkle
04 Stealing Time From The Faulty Plan
05 Lawn Boy
06 Wolfman's Brother
07 Roses Are Free
08 Scent Of A Mule
09 Ocelot
10 Cavern
11 While My Guitar Gently Weeps

Set 2

01 Chalk Dust Torture*
02 Golden Age >
03 Birds Of A Feather
04 Sand
05 Down With Disease >
06 My Friend, My Friend >
07 Harry Hood >
08 Character Zero
Encore
09 Loving Cup

Notes - *1st 2 minutes in mono. Level adjustments.

phish2013-08-05d1t01.flac:818f57b0ebe226fa54428ca111259a0f
phish2013-08-05d1t02.flac:47e30ec26b0fa0a1bdf06b1bb548f887
phish2013-08-05d1t03.flac:6f852eb2c6c47b3ffde47bae2a585f01
phish2013-08-05d1t04.flac:94ccd834c4dc6b1056a956096920c918
phish2013-08-05d1t05.flac:174f53539a7248b63b5051fd89121dac
phish2013-08-05d1t06.flac:d6fa276b95d82b89719ca32184522e90
phish2013-08-05d1t07.flac:0c2568d284c6baa32ee7c169e4b30973
phish2013-08-05d1t08.flac:8c6700903c8051f7fdbdb5d5b7582f19
phish2013-08-05d1t09.flac:54c9adb802d338ec3f9854e88c89b275
phish2013-08-05d1t10.flac:66330a487a98f17237dba6afceebe931
phish2013-08-05d1t11.flac:9fe5560a71391d7e7fb3bd995ce2b1a7
phish2013-08-05d2t01.flac:da036b363d28b2d048cb0b0728bf5834
phish2013-08-05d2t02.flac:40291deadbeac3400c96704bd20393bb
phish2013-08-05d2t03.flac:30fa0e10af2b047aab69428e9555e5d5
phish2013-08-05d2t04.flac:f13d07b892931ec6a2264fcfe1303f4b
phish2013-08-05d2t05.flac:58242a45b18058a614c981861f506a96
phish2013-08-05d2t06.flac:d16122fda29ad5efca4834b4d5fe3277
phish2013-08-05d2t07.flac:20b933d8206413b5bbaf882904762d40
phish2013-08-05d2t08.flac:754e7ae4eff4a102928062946d125090
phish2013-08-05d2t09.flac:36724aeb3103dcb08faa0bdbd866b752

No errors occured.


    length     expanded size    cdr  WAVE problems  fmt   ratio  filename
     6:35.08       69696860 B   ---   --   ---xx   flac  0.5021  phish2013-08-05d1t01.flac
     7:02.21       74490236 B   ---   --   ---xx   flac  0.5128  phish2013-08-05d1t02.flac
     4:00.47       42446588 B   ---   --   ---xx   flac  0.5012  phish2013-08-05d1t03.flac
     6:21.21       67257836 B   ---   --   ---xx   flac  0.5314  phish2013-08-05d1t04.flac
     3:10.26       33577196 B   ---   --   ---xx   flac  0.4099  phish2013-08-05d1t05.flac
     8:38.45       91481084 B   ---   --   ---xx   flac  0.5098  phish2013-08-05d1t06.flac
     5:10.44       54787532 B   ---   --   ---xx   flac  0.5304  phish2013-08-05d1t07.flac
     9:36.11      101632316 B   ---   --   ---xx   flac  0.4721  phish2013-08-05d1t08.flac
     9:56.11      105160316 B   ---   --   ---xx   flac  0.5071  phish2013-08-05d1t09.flac
     4:43.39       50012972 B   ---   --   ---xx   flac  0.5307  phish2013-08-05d1t10.flac
     7:06.27       75209948 B   ---   --   ---xx   flac  0.5001  phish2013-08-05d1t11.flac
     6:10.04       65277452 B   ---   --   ---xx   flac  0.4857  phish2013-08-05d2t01.flac
     8:43.23       92311340 B   ---   --   ---xx   flac  0.5162  phish2013-08-05d2t02.flac
     7:16.26       76971596 B   ---   --   ---xx   flac  0.5213  phish2013-08-05d2t03.flac
     9:18.34       98511212 B   ---   --   ---xx   flac  0.5179  phish2013-08-05d2t04.flac
     9:50.14      104108972 B   ---   --   ---xx   flac  0.5231  phish2013-08-05d2t05.flac
     5:41.29       60220652 B   ---   --   ---xx   flac  0.5137  phish2013-08-05d2t06.flac
    22:32.12      238521068 B   ---   --   ---xx   flac  0.4910  phish2013-08-05d2t07.flac
     8:24.30       88976204 B   ---   --   ---xx   flac  0.5301  phish2013-08-05d2t08.flac
     7:59.09       84516812 B   ---   --   ---xx   flac  0.5246  phish2013-08-05d2t09.flac
   158:16.31     1675168192 B                            0.5072  (20 files)

No errors occured.


Show Checksums
16bit-FFP
phish2013-08-05d1t01.flac:818f57b0ebe226fa54428ca111259a0f
phish2013-08-05d1t02.flac:47e30ec26b0fa0a1bdf06b1bb548f887
phish2013-08-05d1t03.flac:6f852eb2c6c47b3ffde47bae2a585f01
phish2013-08-05d1t04.flac:94ccd834c4dc6b1056a956096920c918
phish2013-08-05d1t05.flac:174f53539a7248b63b5051fd89121dac
phish2013-08-05d1t06.flac:d6fa276b95d82b89719ca32184522e90
phish2013-08-05d1t07.flac:0c2568d284c6baa32ee7c169e4b30973
phish2013-08-05d1t08.flac:8c6700903c8051f7fdbdb5d5b7582f19
phish2013-08-05d1t09.flac:54c9adb802d338ec3f9854e88c89b275
phish2013-08-05d1t10.flac:66330a487a98f17237dba6afceebe931
phish2013-08-05d1t11.flac:9fe5560a71391d7e7fb3bd995ce2b1a7
phish2013-08-05d2t01.flac:da036b363d28b2d048cb0b0728bf5834
phish2013-08-05d2t02.flac:40291deadbeac3400c96704bd20393bb
phish2013-08-05d2t03.flac:30fa0e10af2b047aab69428e9555e5d5
phish2013-08-05d2t04.flac:f13d07b892931ec6a2264fcfe1303f4b
phish2013-08-05d2t05.flac:58242a45b18058a614c981861f506a96
phish2013-08-05d2t06.flac:d16122fda29ad5efca4834b4d5fe3277
phish2013-08-05d2t07.flac:20b933d8206413b5bbaf882904762d40
phish2013-08-05d2t08.flac:754e7ae4eff4a102928062946d125090
phish2013-08-05d2t09.flac:36724aeb3103dcb08faa0bdbd866b752
16bit-FLAC-md5
d9b4c9b15bb7cc1a6622bec9b08f2b4e *phish2013-08-05d1t01.flac
5904ce86f13518635263e7ce315f51bc *phish2013-08-05d1t02.flac
8268f6e3f38a0131b956938bc00586cc *phish2013-08-05d1t03.flac
65d422d57e2709b48a366d28036ec24c *phish2013-08-05d1t04.flac
0c2fc8c18f709538494922f57dd9994f *phish2013-08-05d1t05.flac
93084e5e46a55298fc3bf731a48ccc6f *phish2013-08-05d1t06.flac
82a720b891ae742db72c9a87a13c7a5b *phish2013-08-05d1t07.flac
922ceb4005a55e303997a010ee969d1d *phish2013-08-05d1t08.flac
8327203275784b9652ccdb8dcc9cc714 *phish2013-08-05d1t09.flac
0b64dbc342f225a9bebf151e88e7ccf0 *phish2013-08-05d1t10.flac
6f40a6f3ed3761911199243b84bba7a1 *phish2013-08-05d1t11.flac
83a8227db151bbbae8f3d7a563effe7b *phish2013-08-05d2t01.flac
f71c8b64f58582b8d6f939d908ad34ce *phish2013-08-05d2t02.flac
2f67339e7bd56ec3d0c645ee8f6e4564 *phish2013-08-05d2t03.flac
483c399fba2e5fa6dc00d5fee3ac7ac4 *phish2013-08-05d2t04.flac
78a4494525df4fa9d03000661b615311 *phish2013-08-05d2t05.flac
11572160aa99ad57f98661a317713554 *phish2013-08-05d2t06.flac
ff3f7e94f929b9dd43387ba4d555a695 *phish2013-08-05d2t07.flac
f8787c0622d75f7caa02ce3cfc9cf23d *phish2013-08-05d2t08.flac
7b169b337868f1d787f4f8b60d7335b6 *phish2013-08-05d2t09.flac

Comments
Add Comment
Other Sources (comments)
flac16; Schoeps... (1) flac16; Neumann... (0) flac16; AKG c422 >... (0) flac24; AKG c422 >... (0) flac16; AKG Ck61 >... (0) flac1648... (0) flac2448... (0)
Date User Comment