Browse Collections Artists Sources   Search Dates

Add Show    List Management    Help


Ratdog 08/17/13
Peach Festival - Montage Mountain, Scranton, PA
Comments Add Comment    Source Collectors    Add to Collection    Add to Want List    History
Source # 125573 Other Sources
Entered by ziko
Checksums ffp , md5
Disc Counts 0 / 0
Media Size Compressed: 1.05 GB (1125846568 bytes)
Date Circulated
Date Added
08/31/2013
08/30/2013
Source Summary Source: Audience recording > Nak 300s with CP4 caps > WMD-5 (as pre-amp) > Edirol R-09HR > wav 24/48 Lineage: wav 24/48 > iZotope Ozone 5 Advanced > iZotope RX2 Advanced > wav 16/44.1 > CD Wave > TLH > Flac 16 Recorded by John Bleich 
Source Information - Download Text | Download Zip
Ratdog
Peach Festival
Toyota Pavillion
Montage Mountain
Scranton, PA
08/17/2013

Source: Audience recording > Nak 300s with CP4 caps >  WMD-5 (as pre-amp) > Edirol R-09HR > wav 24/48
Lineage: wav 24/48 > iZotope Ozone 5 Advanced > iZotope RX2 Advanced > wav 16/44.1 > CD Wave > TLH > Flac 16

Recorded by John Bleich


01   tuning
02   Jam >
03   Bird Song >
04   Jack Straw >
05   West LA Fadeaway >
06   Cassidy >
07   Dark Star >
08   Even So >
09   October Queen >
10   The Other One >
11   Piano Solo >
12   Days Between >
13   Two Djinn >
14   Not Fade Away


Bob Weir - guitar, vocals
Jeff Chimenti - keyboards
Steve Kimock - guitar
Robin Sylvester - bass
Rob Wasserman - bass
Jay Lane - drums


Thanks to John for this recording.


edited and mastered
SIRMick
August 2013


shntool output:

    length     expanded size    cdr  WAVE problems  fmt   ratio  filename
     1:28.33       15600860 B   ---   --   ---xx   flac  0.4104  rd2013-08-17t01.flac
     1:54.20       20156684 B   ---   --   ---xx   flac  0.5021  rd2013-08-17t02.flac
    12:26.09      131615612 B   ---   --   ---xx   flac  0.5264  rd2013-08-17t03.flac
     8:55.51       94493996 B   ---   --   ---xx   flac  0.5475  rd2013-08-17t04.flac
    10:47.46      114239036 B   ---   --   ---xx   flac  0.5338  rd2013-08-17t05.flac
     9:07.49       96606092 B   ---   --   ---xx   flac  0.5250  rd2013-08-17t06.flac
     7:21.64       77942972 B   ---   --   ---xx   flac  0.5099  rd2013-08-17t07.flac
     9:05.20       96185084 B   ---   --   ---xx   flac  0.4953  rd2013-08-17t08.flac
     9:53.73      104776940 B   ---   --   ---xx   flac  0.5194  rd2013-08-17t09.flac
     7:37.39       80706572 B   ---   --   ---xx   flac  0.5617  rd2013-08-17t10.flac
     1:45.66       18677276 B   ---   --   ---xx   flac  0.4185  rd2013-08-17t11.flac
     9:24.50       99607244 B   ---   --   ---xx   flac  0.4749  rd2013-08-17t12.flac
     9:40.51      102431996 B   ---   --   ---xx   flac  0.5659  rd2013-08-17t13.flac
     6:52.55       72806204 B   ---   --   ---xx   flac  0.5504  rd2013-08-17t14.flac
   106:22.26     1125846568 B                            0.5236  (14 files)

flac fingerprints:

rd2013-08-17t01.flac:699b1c16acdfe0b6ff5c57a2b210b41e
rd2013-08-17t02.flac:c3b67a1eaddaa15de454ab6a6a3e4797
rd2013-08-17t03.flac:63357bfc66f783752ed6b47ff89680f2
rd2013-08-17t04.flac:9547728fe472c121c09b654037663f92
rd2013-08-17t05.flac:07d3d2b9d201be2d86b87b2ca28341e9
rd2013-08-17t06.flac:e3c08c5f0f1244436fc0f1d11d2e7371
rd2013-08-17t07.flac:ebee1a57b8e4115b4aaa9320a2022651
rd2013-08-17t08.flac:5a3450fea93b8fe1ec1f9b6a2a2175cf
rd2013-08-17t09.flac:3a1eb8df1b108a239c63a4534b21ae98
rd2013-08-17t10.flac:27eda270ee723129a18afc6831af6648
rd2013-08-17t11.flac:f5cc8efcad27f0af2df387940b412614
rd2013-08-17t12.flac:507fbceab4cbaf688078e0c394fc2aee
rd2013-08-17t13.flac:ef601adfcf83bad59db033a2ebb2c312
rd2013-08-17t14.flac:f7b0006b9a626c6e704650de2fe5e94d

Show Checksums
ffp
rd2013-08-17t01.flac:699b1c16acdfe0b6ff5c57a2b210b41e
rd2013-08-17t02.flac:c3b67a1eaddaa15de454ab6a6a3e4797
rd2013-08-17t03.flac:63357bfc66f783752ed6b47ff89680f2
rd2013-08-17t04.flac:9547728fe472c121c09b654037663f92
rd2013-08-17t05.flac:07d3d2b9d201be2d86b87b2ca28341e9
rd2013-08-17t06.flac:e3c08c5f0f1244436fc0f1d11d2e7371
rd2013-08-17t07.flac:ebee1a57b8e4115b4aaa9320a2022651
rd2013-08-17t08.flac:5a3450fea93b8fe1ec1f9b6a2a2175cf
rd2013-08-17t09.flac:3a1eb8df1b108a239c63a4534b21ae98
rd2013-08-17t10.flac:27eda270ee723129a18afc6831af6648
rd2013-08-17t11.flac:f5cc8efcad27f0af2df387940b412614
rd2013-08-17t12.flac:507fbceab4cbaf688078e0c394fc2aee
rd2013-08-17t13.flac:ef601adfcf83bad59db033a2ebb2c312
rd2013-08-17t14.flac:f7b0006b9a626c6e704650de2fe5e94d
md5
347374e270ca66f898a9619912ff0523 *rd2013-08-17t01.flac
2343974c5ccb4c9864171d10ad15a615 *rd2013-08-17t02.flac
f1e07478cd6bd5e044cb077422bab8ee *rd2013-08-17t03.flac
a66dcd73c6b51595883e9f64c036cf6f *rd2013-08-17t04.flac
dd260575996be3b3cf57d927404625a1 *rd2013-08-17t05.flac
6e7055bc96d19c4ca0aa303d178e0800 *rd2013-08-17t06.flac
1e3344e4e70cab9befb915d4fd282e94 *rd2013-08-17t07.flac
d1f83102cf8efa4b8dfa48a1b09ddb2e *rd2013-08-17t08.flac
493c474ab71c4cb8271e52c4fc8914bd *rd2013-08-17t09.flac
66f8e3ac59da246cb96c93c0b021ad8b *rd2013-08-17t10.flac
39c3294cdb1bed866ed498d551e8cdff *rd2013-08-17t11.flac
5c6cba9cabfa9413aa9d24f0c639ea4c *rd2013-08-17t12.flac
e285c92553203c3451f56c37456139ea *rd2013-08-17t13.flac
de179e5fea01901a7e2d4522d0029eed *rd2013-08-17t14.flac

Comments
Add Comment
Other Sources (comments)
flac16; Schoeps... (0) flac16;Source:... (0) flac16;Source: AKG... (0) AKG568Cebs>LunatecV3>Marant... (0) flac24;Telefunken... (0) flac24:Nak 300 Mics... (0)
Date User Comment