Browse Collections Artists Sources   Search Dates

Add Show    List Management    Help


Grateful Dead 09/11/83
Santa Fe Downs, Santa Fe, NM
Comments Add Comment    Source Collectors    Add to Collection    Add to Want List    History
Source # 125609 Other Sources
Entered by Matt Vernon
Checksums ffp , flac-md5
Disc Counts 0 / 0
Media Size Compressed: 1.11 GB (1194209724 bytes)
Uncompressed: 1.81 GB (1944333644 bytes)
Date Circulated
Date Added
09/04/2013
09/04/2013
Source Summary flac16; 2 Source Matrix Matrix by dusborne; Soundboard (shinid:4995) SBD>Master Cassette>1 Reel>DAT>DAT>WAV>Soundforge 4.0>CDWAV 1.53>MKW 0.97b>SHN DAT>WAV via Sony SDT-9000 DDS drive using VDAT 0.6f and Audience (shnid:100454) FOB) Nakamichi CM300->PCM->DAT (16/44) Lineage: Dat clone->Sony PCM R-500->VX Pocket V2->SF6 Taper: Unknown Transferred and Seeded by Mike Watson 
  Archive
Source Information - Download Text | Download Zip
Grateful Dead
September 11, 1983
Downs of Santa Fe
Santa Fe, NM


2 Source Matrix

Soundboard (shinid:4995)
-----------------------------------------------------------------------------------
gd83-09-11.sbd.dankseed.4995.sbeok.shnf

Source:
SBD>Master Cassette>1 Reel>DAT>DAT>WAV>Soundforge 4.0>CDWAV 1.53>MKW 0.97b>SHN
DAT>WAV via Sony SDT-9000 DDS drive using VDAT 0.6f (see error logs below)

WAV was edited in Soundforge (crossfading of cuts between songs, and the edits
listed below:)
-First three minutes of Alabama Getaway patched from aud
-Beginning of Dire Wolf  (0:08) patched from aud
-Beginning (0:54) of Althea patched from aud
-End of Althea (6:20) to beginning of CC Rider (0:17)  patched from aud
-Middle of Wang Dang Doodle (6:05-7:35) patched from aud
-16:56:23- 43:01:62 click removal, slope sensitivity=400, proximity=80
-Some pop removal and smoothing of analog noises (via pencil) in Althea and
Wang Dang Doodle

Known flaws:
Cassette flip drums
Minor analog noise in Althea at 2:18, 3:39-3:41,
Some static and pops remain in CC Rider from 7:38-7:45
PA noise in Wang Dang Doodle 2:04-2:07, 2:17, 4:17,4:22, and 4:45(also on aud)

Flac encoding notes:
All processing with Trader's Little Helper
Shn - st5 generated
Shn > Flac ( level 8 )
Flac - st5 generated and matched to Shn st5
B. Proctor 2-25-12


Audience (shnid:100454)
------------------------------------------------------------------------------------
gd1983-09-11.fob.nak300.unknown.watson.100454.flac16

Source: (FOB) Nakamichi CM300->PCM->DAT (16/44)
Lineage: Dat clone->Sony PCM R-500->VX Pocket V2->SF6
Taper: Unknown
Transferred and Seeded by Mike Watson on 08/03/2009

Here's another one from the DAT collection of Keith Litzenberger.
The only info I have is what was listed on the DAT.
I believe the info is correct because some of the same crowd noise can be heard
here and the Tony Suraci source. During the set II tuning a fan requests
"The Wheel".
This guy seems to be in between this taper and tony Suraci.
So that tells me the FOB info is correct.
There are no cuts where cassette flips would normally be and it sounds really
crisp and clean leading me to believe it was mastered on PCM.
God Bless The Grateful Dead, Enjoy!

----------------------------------------------------------------------------------

---Thank you Dankseed for all your work on the SBD.
---Thank you Keith Litzenberger for providing your DAT of the AUD.
---Thank you Mike Watson for your transfer of the AUD source.
---Thank you Germain for your advice, encouragement, guidance and seeding.

Matrix by dusborne

09-03-2013
----------------------------------------------------------------------------------

Set 1

101 - gd83-09-11s1t01 - Tuning
102 - gd83-09-11s1t02 - Alabama Getaway ->
103 - gd83-09-11s1t03 - Greatest Story Ever Told
104 - gd83-09-11s1t04 - Dire Wolf
105 - gd83-09-11s1t05 - Hell in a Bucket
106 - gd83-09-11s1t06 - West L.A. Fadeaway
107 - gd83-09-11s1t07 - Me & My Uncle ->
108 - gd83-09-11s1t08 - Mexicali Blues
109 - gd83-09-11s1t09 - Althea
110 - gd83-09-11s1t10 - C. C. Rider ->
111 - gd83-09-11s1t11 - Might as Well

Set 2

201 - gd83-09-11s2t01 - Tuning
202 - gd83-09-11s2t02 - Help on the Way ->
203 - gd83-09-11s2t03 - Slipknot! ->
204 - gd83-09-11s2t04 - Franklin's Tower
205 - gd83-09-11s2t05 - Let It Grow
206 - gd83-09-11s2t06 - He's Gone ->
207 - gd83-09-11s2t07 - Drums ->
208 - gd83-09-11s2t08 - Space ->
209 - gd83-09-11s2t09 - Truckin' ->
210 - gd83-09-11s2t10 - Wang Dang Doodle ->
211 - gd83-09-11s2t11 - Morning Dew ->
212 - gd83-09-11s2t12 - Around & Around ->
213 - gd83-09-11s2t13 - Sugar Magnolia

Encore
214 - gd83-09-11s2t14 - U.S. Blues

Mickey Hart's 40th birthday
----------------------------------------------------------------------------------

Tagging notes:
Show information is embedded within the header of each flac file.
It will display on any player capable of directly playing flac
files. If converted to wav during processing, all tags will be
stripped, however audio data will remain unaffected. If you must
transcode to a lossy format, do so directly Flac > Lossy.
Use ffp to validate audio integrity.
Md5 values will change if tagging is altered.
dusborne 09-03-2013

-----------------------------------------------------------------------------------
length     expanded size    cdr  WAVE problems  fmt   ratio  filename
     1:01.33       10838060 B   ---   --   ---xx   flac  0.5130  gd83-09-11s1t01.flac
     5:04.70       53790284 B   ---   --   ---xx   flac  0.6308  gd83-09-11s1t02.flac
     5:58.04       63160652 B   ---   --   ---xx   flac  0.5981  gd83-09-11s1t03.flac
     4:46.30       50521004 B   ---   --   ---xx   flac  0.6025  gd83-09-11s1t04.flac
     6:36.28       69920300 B   ---   --   ---xx   flac  0.6150  gd83-09-11s1t05.flac
    10:58.62      116217068 B   ---   --   ---xx   flac  0.6048  gd83-09-11s1t06.flac
     3:05.14       32666972 B   ---   --   ---xx   flac  0.6258  gd83-09-11s1t07.flac
     6:45.26       71503196 B   ---   --   ---xx   flac  0.6158  gd83-09-11s1t08.flac
     8:54.56       94329356 B   ---   --   ---xx   flac  0.6073  gd83-09-11s1t09.flac
     8:05.48       85666940 B   ---   --   ---xx   flac  0.6099  gd83-09-11s1t10.flac
     4:40.17       49432028 B   ---   --   ---xx   flac  0.6313  gd83-09-11s1t11.flac
     0:23.62        4203068 B   ---   --   ---xx   flac  0.5610  gd83-09-11s2t01.flac
     3:50.56       40703756 B   ---   --   ---xx   flac  0.6212  gd83-09-11s2t02.flac
     7:03.02       74621948 B   ---   --   ---xx   flac  0.6291  gd83-09-11s2t03.flac
     9:42.40      102758924 B   ---   --   ---xx   flac  0.6312  gd83-09-11s2t04.flac
    16:34.07      175358108 B   ---   --   ---xx   flac  0.6179  gd83-09-11s2t05.flac
    10:46.38      114043820 B   ---   --   ---xx   flac  0.6112  gd83-09-11s2t06.flac
     8:00.28       84737900 B   ---   --   ---xx   flac  0.5981  gd83-09-11s2t07.flac
    10:30.17      111172028 B   ---   --   ---xx   flac  0.5651  gd83-09-11s2t08.flac
     7:21.62       77938268 B   ---   --   ---xx   flac  0.6555  gd83-09-11s2t09.flac
    10:44.40      113695724 B   ---   --   ---xx   flac  0.6310  gd83-09-11s2t10.flac
    10:08.61      107394716 B   ---   --   ---xx   flac  0.5984  gd83-09-11s2t11.flac
     3:42.38       39250220 B   ---   --   ---xx   flac  0.6317  gd83-09-11s2t12.flac
    13:34.01      143591996 B   ---   --   ---xx   flac  0.6240  gd83-09-11s2t13.flac
     5:22.07       56817308 B   ---   --   ---xx   flac  0.6237  gd83-09-11s2t14.flac
   183:42.22     1944333644 B                            0.6142  (25 files)
----------------------------------------------------------------------------------

Show Checksums
ffp
gd83-09-11s1t01.flac:4c0853608c28ac64565caebca515ec53
gd83-09-11s1t02.flac:09d6ea860f5f2e67a3d6adb58da37dd5
gd83-09-11s1t03.flac:ea4ec03371a85af6f74f3c793b17832f
gd83-09-11s1t04.flac:e29460aac198e8206ff9f27eb756096f
gd83-09-11s1t05.flac:b3304fbb7c1c2d33030fa2f9ff5cf811
gd83-09-11s1t06.flac:fedd975fc68714f96a7d7da7dd3f5f46
gd83-09-11s1t07.flac:e658deb3651c700d2f166fab4a6fc76b
gd83-09-11s1t08.flac:1b929a898fd60e931b0dc127b781d9a1
gd83-09-11s1t09.flac:63ee9f8cbaea7a31decac69cfe939839
gd83-09-11s1t10.flac:a2e6db3a3c9fd81f11f837817a7c6e2f
gd83-09-11s1t11.flac:fb6257a6ae038cf27a27864eb794693c
gd83-09-11s2t01.flac:e004da8dea27e7c81f0577cd356a8a93
gd83-09-11s2t02.flac:3659465e875603714cfed1dc55f1e6e8
gd83-09-11s2t03.flac:7de6ae64d0ba97d229a52a32e33044f8
gd83-09-11s2t04.flac:80ce68efce3ab8d145c25ea95cfcdbab
gd83-09-11s2t05.flac:db6a6b93d2412707bab4c40f752dcdaf
gd83-09-11s2t06.flac:09c73fe28e05faf5cc522a22465ba1e9
gd83-09-11s2t07.flac:83d50816e1252a2be2895426c1c7d526
gd83-09-11s2t08.flac:d95956176912821192b507f78cd807c1
gd83-09-11s2t09.flac:00a4ab716d2e1e37d1788819cb4c9f07
gd83-09-11s2t10.flac:687a197945f414e39dd5ca4fdd524819
gd83-09-11s2t11.flac:89d59eb09167e99a4badcc5b70cb7967
gd83-09-11s2t12.flac:c69dfe0af9711d78f85d61ed98848878
gd83-09-11s2t13.flac:0eb8e6031eaafa40e91ac360cb5ef0ae
gd83-09-11s2t14.flac:2efd704fdf9a09c3bc67aab5697218d2
flac-md5
c5b3eee509cea55a48a3d42db434be7e *gd83-09-11s1t01.flac
3044ae6b541ee93489903d306a3a2e93 *gd83-09-11s1t02.flac
ffc052b45d29569bc097d9a73a5c85c8 *gd83-09-11s1t03.flac
c81436afa7299a5a6daf5f2dc7cfdce8 *gd83-09-11s1t04.flac
ac11b51b01aff5f56e4d98c90ed0460e *gd83-09-11s1t05.flac
26e0158b2d984773bf19161b0338f8ab *gd83-09-11s1t06.flac
71554cafb4032c8ecd6d8b675e911f53 *gd83-09-11s1t07.flac
b0548b334364b572fa8f2fb127f0be89 *gd83-09-11s1t08.flac
4b3c17eafe8ad3545596f8ad66eb8c90 *gd83-09-11s1t09.flac
d430984bae6101ee50dbf167b5d3c17e *gd83-09-11s1t10.flac
bc67805ac3067003ea0ae2d2eef085fd *gd83-09-11s1t11.flac
82dda869eecd5a1f0b75d2b195d8e9a5 *gd83-09-11s2t01.flac
2cf1a5599c235cccfdfc844f619808e2 *gd83-09-11s2t02.flac
a63bc5f7d26d77f1c6bfe554317d2d0b *gd83-09-11s2t03.flac
def443319cce20177c6c060d248cc9cc *gd83-09-11s2t04.flac
75cf1af9740f3f0dcf0fe8d854babff3 *gd83-09-11s2t05.flac
eb4aa964acaa413e8cc4afc5b8bcc911 *gd83-09-11s2t06.flac
5b0b78ce2f11f13d4b25d513bffd6e33 *gd83-09-11s2t07.flac
30f9a93f96ad5b8ae903ce44a79ced1a *gd83-09-11s2t08.flac
34b17e6e6c7c45e28e4f07612df53c2c *gd83-09-11s2t09.flac
89e05189d8f9d92583b362993a3066c0 *gd83-09-11s2t10.flac
7252ce81e9f91d75b88394b2148c9b88 *gd83-09-11s2t11.flac
492212572e592d43f44cb0dcbac2a441 *gd83-09-11s2t12.flac
38943803a1686dbc5423c9c8db2d8c46 *gd83-09-11s2t13.flac
53a26017f6de96dda10710f794a6b51e *gd83-09-11s2t14.flac

Comments
Add Comment
Other Sources (comments)
Source: Jeff Silberman's... (1) SBD> Master Cassette> 1... (0) Source: Jeff Silberman's... (1) flac16; Source:... (0) flac16; Source:... (0) SBD-> ?->CD->EAC->WAV->SHN... (1) flac16; source: 2... (0) flac16; 2 Source... (0) flac24; billydee... (0) flac16; Set 2 Jeff... (0) flac16; billydee... (0) flac16/44.1 ... (0) flac24/48 Master:... (0)
Date User Comment