Browse Collections Artists Sources   Search Dates

Add Show    List Management    Help


Grateful Dead 10/19/80
Saenger Performing Arts Center, New Orleans, LA
Comments Add Comment    Source Collectors    Add to Collection    Add to Want List    History
Source # 125632 Other Sources
Entered by Matt Vernon
Checksums flac-md5 , ffp
Disc Counts 0 / 0
Media Size Compressed: 4.82 GB (5174767616 bytes)
Uncompressed: 7.4 GB (7950197828 bytes)
Date Circulated
Date Added
09/06/2013
09/06/2013
Source Summary flac24; AUD: 2x Beyer M160's > Sony TC-D5, 20-foot spread, front edge of balcony. Transfer: MAC > Nakamichi 1000-II > Sound Devices USB Pre-2 > WAV 2496. Edits: WAV 2496 > Wavelab > CD-Wave (24bit output) > TLH > FLAC 2496 tagged. Concert recording & transfer by Richie Stankiewicz, edits by Andrew F. 09/2013. 
  Archive
Source Information - Download Text | Download Zip
GRATEFUL DEAD
Saenger Theatre
New Orleans LA
10-19-1980

24bit/96kHz file-set

s1t01 On The Road Again
s1t02 Jackaroe
s1t03 Dark Hollow
s1t04 Rosalie McFall
s1t05 Cassidy
s1t06 Birdsong
s1t07 Heaven Help The Fool
xxxxx Oh Babe It Ain't No Lie [Missing]
s1t08 //Ripple

s2t01 crowd
s2t02 Jack Straw
s2t03 They Love Each Other
s2t04 Mama Tried >
s2t05 Mexicali Blues
s2t06 Candyman
s2t07 Passenger
s2t08 Row Jimmy >
s2t09 Looks Like Rain
s2t10 Tennessee Jed
s2t11 Promised Land

s3t01 Scarlet Begonias >
s3t02 Fire On The Mountain
s3t03 Samson & Delilah
s3t04 Terrapin Station >
s3t05 Brent Jam >
s3t06 Drums >
s3t07 Space >
s3t08 Truckin' >
s3t09 Wharf Rat >
s3t10 Sugar Magnolia >
s3t11 Good Lovin'
s3t12 Encore: Brokedown Palace

AUD: 2x Beyer M160's > Sony TC-D5, 20-foot spread, front edge of balcony.

Transfer: MAC > Nakamichi 1000-II > Sound Devices USB Pre-2 > WAV 2496.

Edits: WAV 2496 > Wavelab > CD-Wave (24bit output) > TLH > FLAC 2496 tagged.

Concert recording & transfer by Richie Stankiewicz, edits by Andrew F. 09/2013.

Notes: Some mic bumps during Heaven Help. OBIANL missing from the master, Ripple
fades in on "Come through the music". There's a half-second silent gap after
Heaven Help; if decent patch material ever surfaces, it can be inserted there.
Seaweed's tape (ID-125234) was transferred in 24bit for 3rd Set patch material;
Scarlet 0:00 > 3:14, and Drums 5:28 > Space 2:56. Upsampled patch from ID-13469
was inserted in Drums 4:00 > 5:28 to make the 3rd Set seamless. There's a small
half-second skip in Brokedown at 4:50, right after "Lovers come and go".

    length     expanded size    cdr  WAVE problems  fmt   ratio  filename
     4:27.600     154137644 B   cxx   --   ---xx   flac  0.6462  gd1980-10-19s1t01.flac
     6:23.520     220907564 B   cxx   --   ---xx   flac  0.6404  gd1980-10-19s1t02.flac
     6:03.933     209625644 B   cxx   --   ---xx   flac  0.6405  gd1980-10-19s1t03.flac
     5:30.733     190502444 B   cxx   --   ---xx   flac  0.6409  gd1980-10-19s1t04.flac
     6:44.933     233241644 B   cxx   --   ---xx   flac  0.6481  gd1980-10-19s1t05.flac
    10:16.280     354977324 B   cxx   --   ---xx   flac  0.6453  gd1980-10-19s1t06.flac
     6:57.600     240537644 B   cxx   --   ---xx   flac  0.6443  gd1980-10-19s1t07.flac
     3:54.903     135304382 B   cxx   --   ---xx   flac  0.6619  gd1980-10-19s1t08.flac
     1:54.027      65679404 B   cxx   --   ---xx   flac  0.5877  gd1980-10-19s2t01.flac
     8:41.613     300449324 B   cxx   --   ---xx   flac  0.6453  gd1980-10-19s2t02.flac
    10:38.267     367641644 B   cxx   --   ---xx   flac  0.6394  gd1980-10-19s2t03.flac
     2:32.960      88105004 B   cxx   --   ---xx   flac  0.6643  gd1980-10-19s2t04.flac
     5:10.800     179020844 B   cxx   --   ---xx   flac  0.6585  gd1980-10-19s2t05.flac
     8:22.907     289674284 B   cxx   --   ---xx   flac  0.6297  gd1980-10-19s2t06.flac
     5:56.730     205476506 B   cxx   --   ---xx   flac  0.6602  gd1980-10-19s2t07.flac
    12:46.413     441454124 B   cxx   --   ---xx   flac  0.6444  gd1980-10-19s2t08.flac
     8:33.947     296033324 B   cxx   --   ---xx   flac  0.6418  gd1980-10-19s2t09.flac
     9:30.973     328880684 B   cxx   --   ---xx   flac  0.6593  gd1980-10-19s2t10.flac
     4:30.768     155962232 B   cxx   --   ---xx   flac  0.6783  gd1980-10-19s2t11.flac
     9:33.253     330193964 B   cxx   --   ---xx   flac  0.6771  gd1980-10-19s3t01.flac
    10:24.813     359892524 B   cxx   --   ---xx   flac  0.6689  gd1980-10-19s3t02.flac
     8:22.040     289175084 B   cxx   --   ---xx   flac  0.6724  gd1980-10-19s3t03.flac
    11:37.640     401840684 B   cxx   --   ---xx   flac  0.6523  gd1980-10-19s3t04.flac
     3:25.671     118466576 B   cxx   --   ---xx   flac  0.6707  gd1980-10-19s3t05.flac
     9:52.107     341053484 B   cxx   --   ---xx   flac  0.6259  gd1980-10-19s3t06.flac
     8:08.178     281190476 B   cxx   --   ---xx   flac  0.6236  gd1980-10-19s3t07.flac
     7:19.360     253071404 B   cxx   --   ---xx   flac  0.6790  gd1980-10-19s3t08.flac
    10:55.360     377487404 B   cxx   --   ---xx   flac  0.6479  gd1980-10-19s3t09.flac
     6:13.440     215101484 B   cxx   --   ---xx   flac  0.6799  gd1980-10-19s3t10.flac
     8:21.133     288652844 B   cxx   --   ---xx   flac  0.6762  gd1980-10-19s3t11.flac
     6:50.521     236460236 B   cxx   --   ---xx   flac  0.6190  gd1980-10-19s3t12.flac
   230:02.424    7950197828 B                            0.6509  (31 files)

No errors occured.



Show Checksums
flac-md5
48c9f7e14c99edc1a8f7aeb6acb5b4f0 *gd1980-10-19s1t01.flac
eadfa756130e5fccc415372a2fc168de *gd1980-10-19s1t02.flac
9cdb8241448bccc926fe149c8bf046ef *gd1980-10-19s1t03.flac
464c8e2cb5ad2cb9b9c2cac0ed7ebeae *gd1980-10-19s1t04.flac
ad094bac42fa34d5e650c705e5c518e7 *gd1980-10-19s1t05.flac
509e935f153af4d266c72281a3adbc67 *gd1980-10-19s1t06.flac
6bbcba24ecb7eb0cc37ad1dd16172123 *gd1980-10-19s1t07.flac
6405dfd4da5ef08e089f4637fd28e18c *gd1980-10-19s1t08.flac
46affa372157f6e4ee74afd83df0dff1 *gd1980-10-19s2t01.flac
6d23ae16896ee609bd1aef82a78a8dc1 *gd1980-10-19s2t02.flac
887cf41b6e4f1c20c48554f987c8b23e *gd1980-10-19s2t03.flac
0248573b3557994f8b5501501dd8ccdc *gd1980-10-19s2t04.flac
52d924817483639c8dafba531b726485 *gd1980-10-19s2t05.flac
453413caa3277bb4b6ccf01eedeccf14 *gd1980-10-19s2t06.flac
2a02f404d698ff3631ef96fa6e459323 *gd1980-10-19s2t07.flac
5ad350e928455c9b40b529753412798d *gd1980-10-19s2t08.flac
1a0d582353311dee4df7e2f3c4ac24dc *gd1980-10-19s2t09.flac
8718e72ad1f637d4f1cf18ee0272ce37 *gd1980-10-19s2t10.flac
68b68e5a277f5a381aa4e85c8baa019c *gd1980-10-19s2t11.flac
61488d8157e93d02309cc26f2d4a8692 *gd1980-10-19s3t01.flac
e085cfab055746bd663054df8fe358f2 *gd1980-10-19s3t02.flac
df535293a5fea25d860c4c294e36308e *gd1980-10-19s3t03.flac
2ebe667be19c0e580cda2c1414e43e72 *gd1980-10-19s3t04.flac
d6d7bf2db217b66b60a3a0e368397c69 *gd1980-10-19s3t05.flac
a49ca303236b5b06011795b29aa0ecd8 *gd1980-10-19s3t06.flac
8b6645aa8498de57582dc2c883a4b1c2 *gd1980-10-19s3t07.flac
afa614e8eabfc03736b46989035156a2 *gd1980-10-19s3t08.flac
8a42b191b9439ccf54a3b50a574150d2 *gd1980-10-19s3t09.flac
50e40a852b551f5308b2bd591dfb31fa *gd1980-10-19s3t10.flac
3613bad69c9fe7e0c6fea804cac6cad0 *gd1980-10-19s3t11.flac
eb9705ec5f1ffdc7a072744bbf1f842f *gd1980-10-19s3t12.flac
ffp
gd1980-10-19s1t01.flac:b452a80869e5688f0203b54c4219de38
gd1980-10-19s1t02.flac:3c0ffe63562f7326173a8e2406f92bf1
gd1980-10-19s1t03.flac:0815ba323add2197ea26389cd666f635
gd1980-10-19s1t04.flac:445d3e0ceb1e2d5189d713af5f19d3d6
gd1980-10-19s1t05.flac:9586026c52b90cfd97e6405bf0d92641
gd1980-10-19s1t06.flac:dd37ef7120ad4cdd7b9bc61cf47d228c
gd1980-10-19s1t07.flac:916dabce17dda62e51bb4a5fee821642
gd1980-10-19s1t08.flac:ed9967792699290f11c20f2a5c974372
gd1980-10-19s2t01.flac:173eb656da3c6817cc485d7de9b8603b
gd1980-10-19s2t02.flac:3da0c23746d6090edb182fb1bc1146c6
gd1980-10-19s2t03.flac:e259e76909d162503f63fa881df80fbd
gd1980-10-19s2t04.flac:37428cb6bd6c6868dac507eaf4480874
gd1980-10-19s2t05.flac:c1814ff04e4471216cbf17efba75e60c
gd1980-10-19s2t06.flac:edd30202835eb9ef5e93cb13c3acf2ee
gd1980-10-19s2t07.flac:c64683fb6e4d1226bf81130d5fc7c31a
gd1980-10-19s2t08.flac:d5f631358ade2e27f34d5767310d4d25
gd1980-10-19s2t09.flac:480c1c390a28b7a47a9cc89b5d8ca09a
gd1980-10-19s2t10.flac:67cfb43e59c96e274fa09337824b9e89
gd1980-10-19s2t11.flac:c154f942d5979785b07d79de4f745e93
gd1980-10-19s3t01.flac:7cce71248783c449f69f1cc2f68313f8
gd1980-10-19s3t02.flac:4169b8a122ea223bc061d227448a73f6
gd1980-10-19s3t03.flac:4326f5e7773d987418d2b77de09119f7
gd1980-10-19s3t04.flac:4bfa67728a6d3573315b2aec8881b568
gd1980-10-19s3t05.flac:1c3704cabe2b62a8430a0abcf03d1970
gd1980-10-19s3t06.flac:5fdf902c588383766bd3759433df0f7c
gd1980-10-19s3t07.flac:ae53525d83a2150ffee446491ba29e80
gd1980-10-19s3t08.flac:8809634d09353d25ffe99b1daae083a2
gd1980-10-19s3t09.flac:a9b0b68d58f8b1876b3efde64e7b4f3e
gd1980-10-19s3t10.flac:750a2866df5d447186f297b63ffc9188
gd1980-10-19s3t11.flac:50b1bb364de111b1c51df62d04a7c8a3
gd1980-10-19s3t12.flac:59f679b2066cd0a698b9427b71d229fc

Comments
Add Comment
Other Sources (comments)
unknown FOB aud source... (0) AUDMC(unknown mics) > C > C... (0) flac16; Set 3... (1) flac16; AUD: 2x... (1) flac16/48kHz; s1... (0)
Date User Comment
09/07/2013 nfagdtrfb Correction: Transfer info line should read as follows: MAC > Sony TC-KA3ES > Sound Devices USB Pre-2 > WAV 2496.