Browse Collections Artists Sources   Search Dates

Add Show    List Management    Help


Grateful Dead 10/19/80
Saenger Performing Arts Center, New Orleans, LA
Comments Add Comment    Source Collectors    Add to Collection    Add to Want List    History
Source # 125633 Other Sources
Entered by Matt Vernon
Checksums ffp , flac-md5
Disc Counts 0 / 0
Media Size Compressed: 1.37 GB (1466503168 bytes)
Uncompressed: 2.27 GB (2434749428 bytes)
Date Circulated
Date Added
09/06/2013
09/06/2013
Source Summary flac16; AUD: 2x Beyer M160's > Sony TC-D5, 20-foot spread, front edge of balcony. Transfer: MAC > Nakamichi 1000-II > Sound Devices USB Pre-2 > WAV 2496. Edits: WAV 2496 > Wavelab > R8Brain > CD-Wave > TLH > FLAC 1644 tagged. Concert recording & transfer by Richie Stankiewicz, edits by Andrew F. 09/2013. 
  Archive
Source Information - Download Text | Download Zip
GRATEFUL DEAD
Saenger Theatre
New Orleans LA
10-19-1980

16bit/44.1kHz file-set

s1t01 On The Road Again
s1t02 Jackaroe
s1t03 Dark Hollow
s1t04 Rosalie McFall
s1t05 Cassidy
s1t06 Birdsong
s1t07 Heaven Help The Fool
xxxxx Oh Babe It Ain't No Lie [Missing]
s1t08 //Ripple

s2t01 crowd
s2t02 Jack Straw
s2t03 They Love Each Other
s2t04 Mama Tried >
s2t05 Mexicali Blues
s2t06 Candyman
s2t07 Passenger
s2t08 Row Jimmy >
s2t09 Looks Like Rain
s2t10 Tennessee Jed
s2t11 Promised Land

s3t01 Scarlet Begonias >
s3t02 Fire On The Mountain
s3t03 Samson & Delilah
s3t04 Terrapin Station >
s3t05 Brent Jam >
s3t06 Drums >
s3t07 Space >
s3t08 Truckin' >
s3t09 Wharf Rat >
s3t10 Sugar Magnolia >
s3t11 Good Lovin'
s3t12 Encore: Brokedown Palace

AUD: 2x Beyer M160's > Sony TC-D5, 20-foot spread, front edge of balcony.

Transfer: MAC > Nakamichi 1000-II > Sound Devices USB Pre-2 > WAV 2496.

Edits: WAV 2496 > Wavelab > R8Brain > CD-Wave > TLH > FLAC 1644 tagged.

Concert recording & transfer by Richie Stankiewicz, edits by Andrew F. 09/2013.

Notes: Some mic bumps during Heaven Help. OBIANL missing from the master, Ripple
fades in on "Come through the music". There's a half-second silent gap after
Heaven Help; if decent patch material ever surfaces, it can be inserted there.
Seaweed's tape (ID-125234) was transferred in 24bit for 3rd Set patch material;
Scarlet 0:00 > 3:14, and Drums 5:28 > Space 2:56. Upsampled patch from ID-13469
was inserted in Drums 4:00 > 5:28 to make the 3rd Set seamless. There's a small
half-second skip in Brokedown at 4:50, right after "Lovers come and go".

CDR: D1= Road Again > Mexicali, D2= Candyman > Samson, D3= Terrapin > Brokedown.

    length     expanded size    cdr  WAVE problems  fmt   ratio  filename
     4:27.44       47202332 B   ---   --   ---xx   flac  0.5920  gd1980-10-19s1t01.flac
     6:23.40       67655324 B   ---   --   ---xx   flac  0.5751  gd1980-10-19s1t02.flac
     6:03.70       64197884 B   ---   --   ---xx   flac  0.5714  gd1980-10-19s1t03.flac
     5:30.55       58341404 B   ---   --   ---xx   flac  0.5699  gd1980-10-19s1t04.flac
     6:44.71       71432636 B   ---   --   ---xx   flac  0.5930  gd1980-10-19s1t05.flac
    10:16.20      108709484 B   ---   --   ---xx   flac  0.5859  gd1980-10-19s1t06.flac
     6:57.45       73664684 B   ---   --   ---xx   flac  0.5901  gd1980-10-19s1t07.flac
     3:54.67       41435228 B   ---   --   ---xx   flac  0.6322  gd1980-10-19s1t08.flac
     1:54.02       20114348 B   ---   --   ---xx   flac  0.4723  gd1980-10-19s2t01.flac
     8:41.46       92012636 B   ---   --   ---xx   flac  0.5991  gd1980-10-19s2t02.flac
    10:38.20      112590284 B   ---   --   ---xx   flac  0.5734  gd1980-10-19s2t03.flac
     2:32.71       26979836 B   ---   --   ---xx   flac  0.6317  gd1980-10-19s2t04.flac
     5:10.61       54827516 B   ---   --   ---xx   flac  0.6186  gd1980-10-19s2t05.flac
     8:22.67       88710428 B   ---   --   ---xx   flac  0.5594  gd1980-10-19s2t06.flac
     5:56.56       62930156 B   ---   --   ---xx   flac  0.6311  gd1980-10-19s2t07.flac
    12:46.31      135195356 B   ---   --   ---xx   flac  0.5973  gd1980-10-19s2t08.flac
     8:33.71       90660236 B   ---   --   ---xx   flac  0.5899  gd1980-10-19s2t09.flac
     9:30.73      100719740 B   ---   --   ---xx   flac  0.6262  gd1980-10-19s2t10.flac
     4:30.58       47764460 B   ---   --   ---xx   flac  0.6681  gd1980-10-19s2t11.flac
     9:33.19      101121932 B   ---   --   ---xx   flac  0.6478  gd1980-10-19s3t01.flac
    10:24.61      110217116 B   ---   --   ---xx   flac  0.6450  gd1980-10-19s3t02.flac
     8:22.03       88559900 B   ---   --   ---xx   flac  0.6530  gd1980-10-19s3t03.flac
    11:37.48      123063740 B   ---   --   ---xx   flac  0.6104  gd1980-10-19s3t04.flac
     3:25.50       36279644 B   ---   --   ---xx   flac  0.6595  gd1980-10-19s3t05.flac
     9:52.08      104447660 B   ---   --   ---xx   flac  0.5459  gd1980-10-19s3t06.flac
     8:08.13       86113820 B   ---   --   ---xx   flac  0.5050  gd1980-10-19s3t07.flac
     7:19.28       77505500 B   ---   --   ---xx   flac  0.6665  gd1980-10-19s3t08.flac
    10:55.26      115603196 B   ---   --   ---xx   flac  0.5876  gd1980-10-19s3t09.flac
     6:13.33       65874860 B   ---   --   ---xx   flac  0.6650  gd1980-10-19s3t10.flac
     8:21.10       88399964 B   ---   --   ---xx   flac  0.6548  gd1980-10-19s3t11.flac
     6:50.40       72418124 B   ---   --   ---xx   flac  0.5517  gd1980-10-19s3t12.flac
   230:02.32     2434749428 B                            0.6023  (31 files)

No errors occured.



Show Checksums
ffp
gd1980-10-19s1t01.flac:68ccff1bc5b9184718850c00556d2212
gd1980-10-19s1t02.flac:803882706019f3cde57c1ca8517560ce
gd1980-10-19s1t03.flac:4ef03cf2223659993fa21b8bf1e9f93a
gd1980-10-19s1t04.flac:c09c70b5632851e810b5a320d9ef9288
gd1980-10-19s1t05.flac:efac5457d342b39fc23edad420a41e41
gd1980-10-19s1t06.flac:8e956799e38b6d87c29eae5da22cd6b9
gd1980-10-19s1t07.flac:f895a3d604dc1a6b18cac47e34c6c4db
gd1980-10-19s1t08.flac:5030ff8f353bfd32cdea49aa20089fa0
gd1980-10-19s2t01.flac:c1e3c1a6ef3edd3347205db5217d1a19
gd1980-10-19s2t02.flac:cf051f85d1e4ecdbaeefa241915c61fe
gd1980-10-19s2t03.flac:877a5f4a092bd0adb5fa18003dfc957f
gd1980-10-19s2t04.flac:3468992ba8d90c603d84ccbfe402af07
gd1980-10-19s2t05.flac:2e4482a4bef9c306f15774caffa47c15
gd1980-10-19s2t06.flac:a904f78952c605cbac0d32e5499d138b
gd1980-10-19s2t07.flac:aa35a6aa055363d5af6420bb596988f6
gd1980-10-19s2t08.flac:ba261f0cf81886301393f926680a7bdb
gd1980-10-19s2t09.flac:52c45634d0b0c287f7f75c7840fa1f55
gd1980-10-19s2t10.flac:b093fd1612051b2cac2691d00b068569
gd1980-10-19s2t11.flac:b1b36025ad6fd4ed262dec2726fcf491
gd1980-10-19s3t01.flac:6466e1e158d94fdc365f25e73b1cebd8
gd1980-10-19s3t02.flac:2f02716022a9a5e66a2928cfcfc7d7d6
gd1980-10-19s3t03.flac:9c2240ba1979878a63ad6d924630337c
gd1980-10-19s3t04.flac:4f80a9113d513ea48500e4f0c5adaa91
gd1980-10-19s3t05.flac:eb90af7fa71601c867a93efb499ba1bc
gd1980-10-19s3t06.flac:5dc65664a37ff108d578126280452853
gd1980-10-19s3t07.flac:760679bda43aedb6a1fcbf35f8efe390
gd1980-10-19s3t08.flac:8cbc973c87c2e603bf9170790ab65cfb
gd1980-10-19s3t09.flac:cedc61ff5ecf1bec16509ade214413ac
gd1980-10-19s3t10.flac:bb959f667ee82b1a89dd4dc4a43e7008
gd1980-10-19s3t11.flac:bfd8c5c4ad94bfbd5572e9938df18ff1
gd1980-10-19s3t12.flac:4efaedb64cb2ea589b3c0305bf8a7782
flac-md5
39670e6a40bde8dad6d66076e1fc79ac *gd1980-10-19s1t01.flac
5e46e91c1940a1c5b4264c490fd6aa1d *gd1980-10-19s1t02.flac
f2c6dfee6395964071b23dfa07b833ff *gd1980-10-19s1t03.flac
baf0cf97aea184df26bb79388e32ec46 *gd1980-10-19s1t04.flac
379ae91f58e28ae948a5fbb0fbc8d853 *gd1980-10-19s1t05.flac
626b6e222a7d0aa16bb890e9ec06589a *gd1980-10-19s1t06.flac
d13f218bd01a76ab61621188a026e112 *gd1980-10-19s1t07.flac
aa6f667b30712052da39ccd716258fd2 *gd1980-10-19s1t08.flac
d9017bd212a88dc1689fda68c7a505b7 *gd1980-10-19s2t01.flac
7a37242dc3ac7c8c90c7a22a63f6a18c *gd1980-10-19s2t02.flac
abd86ed6051eeee181f795c58fc11cac *gd1980-10-19s2t03.flac
62055fa21c8885c2adc51298ac7278fd *gd1980-10-19s2t04.flac
7e315ef1d017d11a1dd629a1d321e836 *gd1980-10-19s2t05.flac
6df00f537925ba8f70b97457515177a2 *gd1980-10-19s2t06.flac
86a01214e818b32953a72bec6460b584 *gd1980-10-19s2t07.flac
7ba2df75837528e4d0f8906c75290ded *gd1980-10-19s2t08.flac
12a56062581da94347d2d321ddc6b62a *gd1980-10-19s2t09.flac
746459ecc2657564a62d28ed663e28f8 *gd1980-10-19s2t10.flac
5e2e4e42914dd9c21fc363600db3a867 *gd1980-10-19s2t11.flac
b9845861fe42173ae7a67583027f3874 *gd1980-10-19s3t01.flac
38e62f890cb92e30a4df6c6513e1c1b8 *gd1980-10-19s3t02.flac
1dade3f53d16c9b15ab7b8cd5f359a28 *gd1980-10-19s3t03.flac
597a4418b1bdcd047607842ccac8ccf6 *gd1980-10-19s3t04.flac
e43ef46cb52fcff969cddab7194ad09a *gd1980-10-19s3t05.flac
135583b8879c45d68b1335f9e3edb11e *gd1980-10-19s3t06.flac
972c1f4369b74db9e07858d147302a7d *gd1980-10-19s3t07.flac
8d537f0ce6ae57a1974674a9f9f19911 *gd1980-10-19s3t08.flac
4fed6abd03b553424a6cf8af14eb7567 *gd1980-10-19s3t09.flac
1c4a9e0156a3759b4710b02c5679f84a *gd1980-10-19s3t10.flac
9480ffefb64c89070f5afdae82c38b32 *gd1980-10-19s3t11.flac
3f1a895057f6c0a9b7d3de63c97bedf3 *gd1980-10-19s3t12.flac

Comments
Add Comment
Other Sources (comments)
unknown FOB aud source... (0) AUDMC(unknown mics) > C > C... (0) flac16; Set 3... (1) flac24; AUD: 2x... (1) flac16/48kHz; s1... (0)
Date User Comment
09/07/2013 nfagdtrfb Correction: Transfer info line should read as follows: MAC > Sony TC-KA3ES > Sound Devices USB Pre-2 > WAV 2496.