Browse Collections Artists Sources   Search Dates

Add Show    List Management    Help


Robert Hunter 10/04/13
Keswick Theatre, Glenside, PA
Comments Add Comment    Source Collectors    Add to Collection    Add to Want List    History
Source # 125842 Other Sources
Entered by Greg Yurkovic
Checksums flac.md5 , flac.ffp
Disc Counts 0 / 0
Media Size Compressed: 597.82 MB (626854600 bytes)
Date Circulated
Date Added
10/06/2013
10/06/2013
Source Summary flac16; (FOB) MAC; Sennheiser 441s > Sony D5 > 2 x Maxell MX-S > Master Audience Cassettes> Nakamichi Dragon> Lunatec V3 (@24/88.2)> Lynx AES16e> Wavelab 7.2.1 (UAD-2)> .wav @24/88.2> Apogee UV22HR> .wav @16/44.1> xAct> flac16 
  Archive
Source Information - Download Text | Download Zip
Robert Hunter
2013-10-04 - Friday
Keswick Theatre
Glenside, PA

Source: (FOB) MAC; Sennheiser 441s > Sony D5 > 2 x Maxell MX-S

FOB, Row JJ, Seat 106 (12th row center). Mics pointed up toward the inside of the stacks.

Transfer: Master Audience Cassettes> Nakamichi Dragon> Lunatec V3 (@24/88.2)> Lynx AES16e>
Wavelab 7.2.1 (UAD-2)> .wav @24/88.2> Apogee UV22HR> .wav @16/44.1> xAct> flac16.

Taped by Andrew Kolodjeski
Transferred and mastered by Alex Ford


Set I [40:39]:

01. Bertha
02. Dire Wolf >
03. Peggy-O >
04. Dire Wolf >
05. Box Of Rain
06. Jack Straw
07. Cruel White Water
08. Ship Of Fools >
09. It Must Have Been The Roses >
10. Ship Of Fools >
11. It Must Have Been The Roses >
12. The Keswick Incident >
13. It Must Have Been The Roses
14. Candyman

Set II [68:15]:

01. Brokedown Palace
02. Silvio
03. Deal
04. Stella Blue\
05. Wharf Rat
06. Wind Blows High
07. Standing On The Moon
08. New Speedway Boogie
09. Keys To The Rain
10. Days Between
11. Reuben and Cerise
Encore 1:
12. Scarlet Begonias
13. Ripple
Encore 2:
14. Boys In The Barroom


Notes:

- Hunter's guitar cut out during a section of "Bertha".
- A disruptive fan was thrown out of the Keswick during "It Must Have Been The Roses", (s1t12).
- Hunter stopped mid-stream during "Stella Blue".



Shnlen:

    length     expanded size    cdr  WAVE problems  fmt   ratio  filename
     4:31.67       47962028 B   ---   --   -----    wav  1.0000  rh2013-10-04.senn441.s1t01.wav
     2:11.58       23244860 B   ---   --   -----    wav  1.0000  rh2013-10-04.senn441.s1t02.wav
     3:30.01       37046396 B   ---   --   -----    wav  1.0000  rh2013-10-04.senn441.s1t03.wav
     0:36.06        6364556 B   ---   --   -----    wav  1.0000  rh2013-10-04.senn441.s1t04.wav
     5:43.33       60582860 B   ---   --   -----    wav  1.0000  rh2013-10-04.senn441.s1t05.wav
     4:12.60       44593964 B   ---   --   -----    wav  1.0000  rh2013-10-04.senn441.s1t06.wav
     6:17.09       66524012 B   ---   --   -----    wav  1.0000  rh2013-10-04.senn441.s1t07.wav
     3:51.22       40800188 B   ---   --   -----    wav  1.0000  rh2013-10-04.senn441.s1t08.wav
     1:40.37       17727068 B   ---   --   -----    wav  1.0000  rh2013-10-04.senn441.s1t09.wav
     0:35.16        6211676 B   ---   --   -----    wav  1.0000  rh2013-10-04.senn441.s1t10.wav
     0:38.62        6849068 B   ---   --   -----    wav  1.0000  rh2013-10-04.senn441.s1t11.wav
     1:16.02       13411148 B   ---   --   -----    wav  1.0000  rh2013-10-04.senn441.s1t12.wav
     1:10.72       12517388 B   ---   --   -----    wav  1.0000  rh2013-10-04.senn441.s1t13.wav
     4:23.59       46532012 B   ---   --   -----    wav  1.0000  rh2013-10-04.senn441.s1t14.wav
     4:23.48       46506140 B   ---   --   -----    wav  1.0000  rh2013-10-04.senn441.s2t01.wav
     4:16.24       45214892 B   ---   --   -----    wav  1.0000  rh2013-10-04.senn441.s2t02.wav
     3:06.03       32817500 B   ---   --   -----    wav  1.0000  rh2013-10-04.senn441.s2t03.wav
     1:06.15       11677724 B   ---   --   -----    wav  1.0000  rh2013-10-04.senn441.s2t04.wav
     4:25.41       46842476 B   ---   --   -----    wav  1.0000  rh2013-10-04.senn441.s2t05.wav
     9:07.35       96573164 B   ---   --   -----    wav  1.0000  rh2013-10-04.senn441.s2t06.wav
     5:13.04       55222652 B   ---   --   -----    wav  1.0000  rh2013-10-04.senn441.s2t07.wav
     5:23.66       57132476 B   ---   --   -----    wav  1.0000  rh2013-10-04.senn441.s2t08.wav
     4:21.69       46202732 B   ---   --   -----    wav  1.0000  rh2013-10-04.senn441.s2t09.wav
     7:57.64       84293372 B   ---   --   -----    wav  1.0000  rh2013-10-04.senn441.s2t10.wav
     9:50.21      104125436 B   ---   --   -----    wav  1.0000  rh2013-10-04.senn441.s2t11.wav
     3:17.19       34795532 B   ---   --   -----    wav  1.0000  rh2013-10-04.senn441.s2t12.wav
     4:15.32       45057308 B   ---   --   -----    wav  1.0000  rh2013-10-04.senn441.s2t13.wav
     1:30.60       16017164 B   ---   --   -----    wav  1.0000  rh2013-10-04.senn441.s2t14.wav
   108:55.30     1152845792 B                            1.0000  (28 files)
Show Checksums
flac.md5
1392d2de867a480bc222e7a7717d9875 *rh2013-10-04.senn441.s1t01.flac
c6b5e69e1dab0651cf80a21992621bb2 *rh2013-10-04.senn441.s1t02.flac
eedc9ae614fd0847b155ba6c9c2aee33 *rh2013-10-04.senn441.s1t03.flac
4313d88a2a9bfe1310ab75e5ba4eae1c *rh2013-10-04.senn441.s1t04.flac
e7e4020dfb9e0e7c74b28b29409853d9 *rh2013-10-04.senn441.s1t05.flac
a9a18a21d887ea0849b4710e4d2bb0a4 *rh2013-10-04.senn441.s1t06.flac
740d354854ae7f7592eb97cf6d0b4b56 *rh2013-10-04.senn441.s1t07.flac
3ccd1377cf662875d10b5b031f682486 *rh2013-10-04.senn441.s1t08.flac
00a4ad06d72ee42b1cadea660b628806 *rh2013-10-04.senn441.s1t09.flac
321e5dc07c58f5f2c4da7da1195161f7 *rh2013-10-04.senn441.s1t10.flac
c8e5d20b5e8dba8ccdaea38db1a06465 *rh2013-10-04.senn441.s1t11.flac
6349aca2736c69c736a041e3826d8eb5 *rh2013-10-04.senn441.s1t12.flac
42b63299932421e155cb58deb34fb248 *rh2013-10-04.senn441.s1t13.flac
a143bbd3d3686e863be45d494be59b64 *rh2013-10-04.senn441.s1t14.flac
31df7af4a91c7050f40ae82ba35c0cbe *rh2013-10-04.senn441.s2t01.flac
d84db5f0650c26bd48056afe26d4bf9d *rh2013-10-04.senn441.s2t02.flac
fca8516511baa6e591f9388be789f4a8 *rh2013-10-04.senn441.s2t03.flac
0297299348b8fac6be60b05239a878f5 *rh2013-10-04.senn441.s2t04.flac
b1260a4d04955667863a1fcb1bc510c8 *rh2013-10-04.senn441.s2t05.flac
9758330f7a15613a9719e7be21ae79e3 *rh2013-10-04.senn441.s2t06.flac
175c51e4c370447109bfb6c3f64e0430 *rh2013-10-04.senn441.s2t07.flac
d2472427ec267301da651a9add8cce56 *rh2013-10-04.senn441.s2t08.flac
ddca9e3cda7abcb2f77fc1075a56a2ac *rh2013-10-04.senn441.s2t09.flac
a38677dfef7cee929ffd719535dbb01a *rh2013-10-04.senn441.s2t10.flac
d60b9c98dee398a78e69da706a28ca8d *rh2013-10-04.senn441.s2t11.flac
bb4a23e54820992c5df2e379f2512066 *rh2013-10-04.senn441.s2t12.flac
d364a824ac946932b5c4f2ba4a78a09b *rh2013-10-04.senn441.s2t13.flac
2df934ecd39df1e85b3d8e80abf0f869 *rh2013-10-04.senn441.s2t14.flac
flac.ffp
rh2013-10-04.senn441.s1t01.flac:7a0d1f2346d3516b6cfa88ec0b437c55
rh2013-10-04.senn441.s1t02.flac:e5cdd0fc334beeeea4e9018b4664d5bf
rh2013-10-04.senn441.s1t03.flac:8e08b74746a4a028cd095870126e5a2a
rh2013-10-04.senn441.s1t04.flac:4cdcbf17fa916841158458f230bf663e
rh2013-10-04.senn441.s1t05.flac:87b0bcb6274fbd45ede65006095e9309
rh2013-10-04.senn441.s1t06.flac:15bd47d5214b789b7c0c2b55dcaeb3e0
rh2013-10-04.senn441.s1t07.flac:15ea64dbdfce742096c1b39293100475
rh2013-10-04.senn441.s1t08.flac:3dc32ebf1674b4875399fba4a86d8154
rh2013-10-04.senn441.s1t09.flac:c9699ab0da6eb9911aa6a5b8b07776c3
rh2013-10-04.senn441.s1t10.flac:1569e798579b05103b814fa2e80225cf
rh2013-10-04.senn441.s1t11.flac:7711fc8eae4bf9a24a03cb2d0b1f65bc
rh2013-10-04.senn441.s1t12.flac:e90760cdc342a8bc6da1535c47c0f056
rh2013-10-04.senn441.s1t13.flac:c168e65fc2f0bfab76052d266e0cb4b5
rh2013-10-04.senn441.s1t14.flac:98f3e3d872be85bf41df2b252a508876
rh2013-10-04.senn441.s2t01.flac:b3853d39a6eda27b994beca9946206e8
rh2013-10-04.senn441.s2t02.flac:4fe5adb54c09d1d07da73cac61b64a51
rh2013-10-04.senn441.s2t03.flac:e081905ece2857f89a79ab0856e675e2
rh2013-10-04.senn441.s2t04.flac:c2f6fd3715da1a11a87e60a39d51fc81
rh2013-10-04.senn441.s2t05.flac:8959da6ff6a3234b1cec79f942e20b6a
rh2013-10-04.senn441.s2t06.flac:901678a357c43686cda976b9b7451e3f
rh2013-10-04.senn441.s2t07.flac:971a168c48cbe41b48058eba4c28b4a2
rh2013-10-04.senn441.s2t08.flac:253016583dc4bff7c760998fb6e8db9f
rh2013-10-04.senn441.s2t09.flac:54557fe7db17691bdfb49825471dffca
rh2013-10-04.senn441.s2t10.flac:9c1bf1670292a29c9cd16e8c9a8cbd2f
rh2013-10-04.senn441.s2t11.flac:5cea6826fdc5f0b5f59f54b5b2d4f41b
rh2013-10-04.senn441.s2t12.flac:df24e8a6a1fa289a43ff7ea5390dc7bb
rh2013-10-04.senn441.s2t13.flac:1f0376a274722a5b89257317d11adddc
rh2013-10-04.senn441.s2t14.flac:0eca4a42ab6e602b4d6b5e626676883a

Comments
Add Comment
Other Sources (comments)
flac16: AKG CE1(s) >... (0)
Date User Comment
10/07/2013 Albix Correction: Mics used were Sennheiser 421s.