Browse Collections Artists Sources   Search Dates

Add Show    List Management    Help


Robert Hunter 10/03/13
Palace Theater, Stafford Springs, CT
Comments Add Comment    Source Collectors    Add to Collection    Add to Want List    History
Source # 125846 Other Sources
Entered by Greg Yurkovic
Checksums RobertHunter2013-10-03.H4.tc3.flac16.ffp , RobertHunter2013-10-03.H4.tc3.flac16.md5
Disc Counts 0 / 0
Media Size Compressed: 463 MB (485490688 bytes)
Date Circulated
Date Added
10/07/2013
10/07/2013
Source Summary flac16: internal mics ZoomH4 24/48 > Audacity 16/44 > TLH > FLAC 
Source Information - Download Text | Download Zip
Robert Hunter
Palace Theater
Stafford Springs, CT
10-03-2013 (Thur)

Source: internal mics ZoomH4 24/48 > Audacity 16/44 > TLH.
Taper: taperchuck3.

Set 1
01  applause
02 Standing on the Moon
03 Box Of Rain
04 Cruel White Water
05 Jack Straw
06 Ship of Fools
07 Deal
08 Silvio
09 So Many Roads
set 2
01 applause
02 off the cuff "a Song for CT"
03 Friend of the Devil
04 Lazy River Road  >
05 Whiskey in the Jar
06 Stella Blue  >
07 Brokedown Palace
08 Days Between
09 Reuben and Cherise
10 Tales of the Great Rum Runners
11 Tiger Rose
12 Brown-Eyed Women
13 It Must Have Been the Roses
14 New Speedway Boogie
15  applause
16 Scarlet Begonias  >
17 Ripple  >
18 Boys in the Barroom

comments 15' left stage, sound is from stage speakers only.
110min, 2 disc.
during 2nd set a rose was given to Hunter and he put in his water bottle, like a vase.
Looked nice on the stand. That is the laughter, some visual antics.
enjoy!

Robert Hunter2013-10-03.H4.tc3.d1t-01-fixed.flac:a5cde8841c684c0ebb054524abbb121a
Robert Hunter2013-10-03.H4.tc3.d1t-02-fixed.flac:3b13b15dfa04f0b8b9ba7a5b540c3019
Robert Hunter2013-10-03.H4.tc3.d1t-03-fixed.flac:833b0579754f45e91878193fde3718bf
Robert Hunter2013-10-03.H4.tc3.d1t-04-fixed.flac:e42091d7b729d346c5aafb25d873ec00
Robert Hunter2013-10-03.H4.tc3.d1t-05-fixed.flac:0918be9056a76c30945fad54f2ddc472
Robert Hunter2013-10-03.H4.tc3.d1t-06-fixed.flac:526589e9b3ff834173e70e7c61aaa6aa
Robert Hunter2013-10-03.H4.tc3.d1t-07-fixed.flac:4d468cf3f913b4cdeeb4037764f633d0
Robert Hunter2013-10-03.H4.tc3.d1t-08-fixed.flac:bf2a45072011916ee826f87da26395c3
Robert Hunter2013-10-03.H4.tc3.d1t-09-fixed.flac:35c105cb09a6de0edd19c1317cef04de
Robert Hunter2013-10-03.H4.tc3.d2t-01-fixed.flac:855f01de13c16fc0a2de5c5099f04335
Robert Hunter2013-10-03.H4.tc3.d2t-02-fixed.flac:38ee8b97929f55cd78b670d2b9d94397
Robert Hunter2013-10-03.H4.tc3.d2t-03-fixed.flac:f5390ec537f91a1711768585266f6e71
Robert Hunter2013-10-03.H4.tc3.d2t-04-fixed.flac:589c3b76bb40c7929baa3e6dc4607f3c
Robert Hunter2013-10-03.H4.tc3.d2t-05a-fixed.flac:b51ce0eaaf1eb7dd90d36ebc13f8c0d5
Robert Hunter2013-10-03.H4.tc3.d2t-06-fixed.flac:de0fd5ef952089f72debc93e5c7ebd21
Robert Hunter2013-10-03.H4.tc3.d2t-07-fixed.flac:e2f43c460344be4ba2655c5f26d33d5a
Robert Hunter2013-10-03.H4.tc3.d2t-08-fixed.flac:a51bb7c5d5a12097e258cd16c9ba3684
Robert Hunter2013-10-03.H4.tc3.d2t-09-fixed.flac:dd9f5c0a2a102a3e60196495c644e7ef
Robert Hunter2013-10-03.H4.tc3.d2t-10-fixed.flac:d32c882e6d2428a12f4d6efa70487b7b
Robert Hunter2013-10-03.H4.tc3.d2t-11-fixed.flac:51a58511c984f76f70158da8652d0765
Robert Hunter2013-10-03.H4.tc3.d2t-12-fixed.flac:73e4b17b95ca9bd7352fe6b46ae2e60e
Robert Hunter2013-10-03.H4.tc3.d2t-13-fixed.flac:0a02006f00d18ce75942aa711d2a6a3b
Robert Hunter2013-10-03.H4.tc3.d2t-14-fixed.flac:f236e51f7e4aef35c09b99c37e0ef02d
Robert Hunter2013-10-03.H4.tc3.d2t-15-fixed.flac:32d0a27e398270c409821f592d1d426f
Robert Hunter2013-10-03.H4.tc3.d2t-16-fixed.flac:d28abf58fe9dddf6f87d2445521bcd47
Robert Hunter2013-10-03.H4.tc3.d2t-17-fixed.flac:78859bc046e4ca859bec2a2df4dd269d
Robert Hunter2013-10-03.H4.tc3.d2t-18-fixed.flac:60aed224bc75b761154b36f9239de5bb

No errors occured.


    length     expanded size    cdr  WAVE problems  fmt   ratio  filename
     1:15.12       13258268 B   ---   --   ---xx   flac  0.4199  Robert Hunter2013-10-03.H4.tc3.d1t-01-fixed.flac
     3:59.37       42246668 B   ---   --   ---xx   flac  0.4252  Robert Hunter2013-10-03.H4.tc3.d1t-02-fixed.flac
     5:37.32       59522108 B   ---   --   ---xx   flac  0.4006  Robert Hunter2013-10-03.H4.tc3.d1t-03-fixed.flac
     6:40.34       70640012 B   ---   --   ---xx   flac  0.4423  Robert Hunter2013-10-03.H4.tc3.d1t-04-fixed.flac
     5:11.15       54895724 B   ---   --   ---xx   flac  0.4531  Robert Hunter2013-10-03.H4.tc3.d1t-05-fixed.flac
     4:58.48       52680140 B   ---   --   ---xx   flac  0.3643  Robert Hunter2013-10-03.H4.tc3.d1t-06-fixed.flac
     3:59.36       42244316 B   ---   --   ---xx   flac  0.4360  Robert Hunter2013-10-03.H4.tc3.d1t-07-fixed.flac
     3:39.12       38659868 B   ---   --   ---xx   flac  0.4082  Robert Hunter2013-10-03.H4.tc3.d1t-08-fixed.flac
     5:22.20       56847884 B   ---   --   ---xx   flac  0.3935  Robert Hunter2013-10-03.H4.tc3.d1t-09-fixed.flac
     0:29.71        5282636 B   ---   --   ---xx   flac  0.4395  Robert Hunter2013-10-03.H4.tc3.d2t-01-fixed.flac
     1:16.74       13580492 B   ---   --   ---xx   flac  0.4239  Robert Hunter2013-10-03.H4.tc3.d2t-02-fixed.flac
     5:24.72       57322988 B   ---   --   ---xx   flac  0.4309  Robert Hunter2013-10-03.H4.tc3.d2t-03-fixed.flac
     4:07.14       43603772 B   ---   --   ---xx   flac  0.3608  Robert Hunter2013-10-03.H4.tc3.d2t-04-fixed.flac
     2:50.16       30025676 B   ---   --   ---xx   flac  0.4371  Robert Hunter2013-10-03.H4.tc3.d2t-05a-fixed.flac
     4:29.61       47595116 B   ---   --   ---xx   flac  0.3531  Robert Hunter2013-10-03.H4.tc3.d2t-06-fixed.flac
     4:55.44       52141532 B   ---   --   ---xx   flac  0.3723  Robert Hunter2013-10-03.H4.tc3.d2t-07-fixed.flac
     6:33.18       69367580 B   ---   --   ---xx   flac  0.3495  Robert Hunter2013-10-03.H4.tc3.d2t-08-fixed.flac
     7:41.52       81442748 B   ---   --   ---xx   flac  0.4373  Robert Hunter2013-10-03.H4.tc3.d2t-09-fixed.flac
     3:51.24       40804892 B   ---   --   ---xx   flac  0.4008  Robert Hunter2013-10-03.H4.tc3.d2t-10-fixed.flac
     2:35.67       27499628 B   ---   --   ---xx   flac  0.4752  Robert Hunter2013-10-03.H4.tc3.d2t-11-fixed.flac
     4:02.31       42761756 B   ---   --   ---xx   flac  0.4316  Robert Hunter2013-10-03.H4.tc3.d2t-12-fixed.flac
     4:32.66       48136076 B   ---   --   ---xx   flac  0.4206  Robert Hunter2013-10-03.H4.tc3.d2t-13-fixed.flac
     4:54.31       51934556 B   ---   --   ---xx   flac  0.4789  Robert Hunter2013-10-03.H4.tc3.d2t-14-fixed.flac
     1:17.43       13683980 B   ---   --   ---xx   flac  0.5198  Robert Hunter2013-10-03.H4.tc3.d2t-15-fixed.flac
     3:57.46       41915036 B   ---   --   ---xx   flac  0.4666  Robert Hunter2013-10-03.H4.tc3.d2t-16-fixed.flac
     3:53.55       41230604 B   ---   --   ---xx   flac  0.4350  Robert Hunter2013-10-03.H4.tc3.d2t-17-fixed.flac
     2:07.06       22416956 B   ---   --   ---xx   flac  0.5312  Robert Hunter2013-10-03.H4.tc3.d2t-18-fixed.flac
   109:45.62     1161741012 B                            0.4188  (27 files)

No errors occured.
Show Checksums
RobertHunter2013-10-03.H4.tc3.flac16.ffp
Robert Hunter2013-10-03.H4.tc3.d1t-01-fixed.flac:a5cde8841c684c0ebb054524abbb121a
Robert Hunter2013-10-03.H4.tc3.d1t-02-fixed.flac:3b13b15dfa04f0b8b9ba7a5b540c3019
Robert Hunter2013-10-03.H4.tc3.d1t-03-fixed.flac:833b0579754f45e91878193fde3718bf
Robert Hunter2013-10-03.H4.tc3.d1t-04-fixed.flac:e42091d7b729d346c5aafb25d873ec00
Robert Hunter2013-10-03.H4.tc3.d1t-05-fixed.flac:0918be9056a76c30945fad54f2ddc472
Robert Hunter2013-10-03.H4.tc3.d1t-06-fixed.flac:526589e9b3ff834173e70e7c61aaa6aa
Robert Hunter2013-10-03.H4.tc3.d1t-07-fixed.flac:4d468cf3f913b4cdeeb4037764f633d0
Robert Hunter2013-10-03.H4.tc3.d1t-08-fixed.flac:bf2a45072011916ee826f87da26395c3
Robert Hunter2013-10-03.H4.tc3.d1t-09-fixed.flac:35c105cb09a6de0edd19c1317cef04de
Robert Hunter2013-10-03.H4.tc3.d2t-01-fixed.flac:855f01de13c16fc0a2de5c5099f04335
Robert Hunter2013-10-03.H4.tc3.d2t-02-fixed.flac:38ee8b97929f55cd78b670d2b9d94397
Robert Hunter2013-10-03.H4.tc3.d2t-03-fixed.flac:f5390ec537f91a1711768585266f6e71
Robert Hunter2013-10-03.H4.tc3.d2t-04-fixed.flac:589c3b76bb40c7929baa3e6dc4607f3c
Robert Hunter2013-10-03.H4.tc3.d2t-05a-fixed.flac:b51ce0eaaf1eb7dd90d36ebc13f8c0d5
Robert Hunter2013-10-03.H4.tc3.d2t-06-fixed.flac:de0fd5ef952089f72debc93e5c7ebd21
Robert Hunter2013-10-03.H4.tc3.d2t-07-fixed.flac:e2f43c460344be4ba2655c5f26d33d5a
Robert Hunter2013-10-03.H4.tc3.d2t-08-fixed.flac:a51bb7c5d5a12097e258cd16c9ba3684
Robert Hunter2013-10-03.H4.tc3.d2t-09-fixed.flac:dd9f5c0a2a102a3e60196495c644e7ef
Robert Hunter2013-10-03.H4.tc3.d2t-10-fixed.flac:d32c882e6d2428a12f4d6efa70487b7b
Robert Hunter2013-10-03.H4.tc3.d2t-11-fixed.flac:51a58511c984f76f70158da8652d0765
Robert Hunter2013-10-03.H4.tc3.d2t-12-fixed.flac:73e4b17b95ca9bd7352fe6b46ae2e60e
Robert Hunter2013-10-03.H4.tc3.d2t-13-fixed.flac:0a02006f00d18ce75942aa711d2a6a3b
Robert Hunter2013-10-03.H4.tc3.d2t-14-fixed.flac:f236e51f7e4aef35c09b99c37e0ef02d
Robert Hunter2013-10-03.H4.tc3.d2t-15-fixed.flac:32d0a27e398270c409821f592d1d426f
Robert Hunter2013-10-03.H4.tc3.d2t-16-fixed.flac:d28abf58fe9dddf6f87d2445521bcd47
Robert Hunter2013-10-03.H4.tc3.d2t-17-fixed.flac:78859bc046e4ca859bec2a2df4dd269d
Robert Hunter2013-10-03.H4.tc3.d2t-18-fixed.flac:60aed224bc75b761154b36f9239de5bb
RobertHunter2013-10-03.H4.tc3.flac16.md5
6f599530e7f552284c881e6102ecf346 *Robert Hunter2013-10-03 zoomH4 tc3 info.txt
38e0d4e7f76f58753ca051eed72be7fa *Robert Hunter2013-10-03.H4.tc3.d1t-01-fixed.flac
6e2b2ac9b349ace86f77d48b4ff2e92a *Robert Hunter2013-10-03.H4.tc3.d1t-02-fixed.flac
b894de0734ee83f48cba0a94cadd4c7a *Robert Hunter2013-10-03.H4.tc3.d1t-03-fixed.flac
303c5fe3e3259033d28d110ad837e178 *Robert Hunter2013-10-03.H4.tc3.d1t-04-fixed.flac
a7c14d3b35e9bd8ef496c69cdb9c825d *Robert Hunter2013-10-03.H4.tc3.d1t-05-fixed.flac
9f63df0766115fd5875bf09e54117ab6 *Robert Hunter2013-10-03.H4.tc3.d1t-06-fixed.flac
20d19b5c0da2355f327dba5f4c7a0169 *Robert Hunter2013-10-03.H4.tc3.d1t-07-fixed.flac
d13cf764991970bc2f725b13f01024ef *Robert Hunter2013-10-03.H4.tc3.d1t-08-fixed.flac
f916f44f2bf20e41deadd2a92fe02055 *Robert Hunter2013-10-03.H4.tc3.d1t-09-fixed.flac
714df0f56be8c20fd044d209e52bbeab *Robert Hunter2013-10-03.H4.tc3.d2t-01-fixed.flac
0fe4c82b516044b00620088185b3d3f7 *Robert Hunter2013-10-03.H4.tc3.d2t-02-fixed.flac
38c492c9b0ea9ead85795902ffa009d0 *Robert Hunter2013-10-03.H4.tc3.d2t-03-fixed.flac
121038219ea2f13200d23998a305a5ef *Robert Hunter2013-10-03.H4.tc3.d2t-04-fixed.flac
243062d38660e3865e9d0627685fbfcf *Robert Hunter2013-10-03.H4.tc3.d2t-05a-fixed.flac
17cba2e5d584fb6012a71c3b58e44a91 *Robert Hunter2013-10-03.H4.tc3.d2t-06-fixed.flac
b77d0514cc00260495ab858737d64e95 *Robert Hunter2013-10-03.H4.tc3.d2t-07-fixed.flac
cad45e740b600f4a69f76b0a659991e6 *Robert Hunter2013-10-03.H4.tc3.d2t-08-fixed.flac
ef98046b6fe909a757d564f1a59c7abe *Robert Hunter2013-10-03.H4.tc3.d2t-09-fixed.flac
45cfcf555549f097fbf4bbe8196c1b3e *Robert Hunter2013-10-03.H4.tc3.d2t-10-fixed.flac
14e60bd9a0fefe1b388727c49c57e1b6 *Robert Hunter2013-10-03.H4.tc3.d2t-11-fixed.flac
13e16a4508e79d02114e635d0c693439 *Robert Hunter2013-10-03.H4.tc3.d2t-12-fixed.flac
9d8575908247df49b1a7d10c8d597025 *Robert Hunter2013-10-03.H4.tc3.d2t-13-fixed.flac
d2f1758595887e790ace45b5cc1aa389 *Robert Hunter2013-10-03.H4.tc3.d2t-14-fixed.flac
8cfd3fc52482a876ff249bf7ee1d70f3 *Robert Hunter2013-10-03.H4.tc3.d2t-15-fixed.flac
aea9a65d30ebe472a608951d7216c419 *Robert Hunter2013-10-03.H4.tc3.d2t-16-fixed.flac
8d70d4f5cec26a0bf994c9f0974ca87e *Robert Hunter2013-10-03.H4.tc3.d2t-17-fixed.flac
855b1f1f60f5f23cf214e04917330a41 *Robert Hunter2013-10-03.H4.tc3.d2t-18-fixed.flac
5d1c8f160e244fa428a21ad69ca3cdb4 *RobertHunter2013-10-03.H4.tc3.flac16.ffp
07564f2163edf031ba08c82eb210d5f3 *RobertHunter2013-10-03.H4.tc3.flac16.shntool_len.txt

Comments
Add Comment
Other Sources (comments)
flac16: AKG CE1(s) >... (0)
Date User Comment