Browse Collections Artists Sources   Search Dates

Add Show    List Management    Help


Grateful Dead 05/05/81
Glens Falls Civic Center, Glens Falls, NY
Comments Add Comment    Source Collectors    Add to Collection    Add to Want List    History
Source # 125867 Other Sources
Entered by Matt Vernon
Checksums flac-md5 , ffp
Disc Counts 0 / 0
Media Size Compressed: 651.36 MB (682995712 bytes)
Uncompressed: 1 GB (1072357296 bytes)
Date Circulated
Date Added
10/10/2013
10/10/2013
Source Summary flac16; Set 2 Source: Unknown AUD, lo-gen tape kindly provided by Ted Gidley. Transfer: XLII > Nakamichi CR-5A > Edirol FA-66 > Wavelab 2448 > R8Brain > CD-Wave > TLH > FLAC 1644 tagged, Andrew F. 10/2013 
  Archive
Source Information - Download Text | Download Zip
GRATEFUL DEAD
Civic Center
Glens Falls NY
05-05-1981
Second Set

s2t01 Scarlet Begonias >
s2t02 Fire on the Mountain
s2t03 Estimated Prophet >
s2t04 Eyes of the World >
s2t05 Drums >
s2t06 Space >
s2t07 Uncle John's Band >
s2t08 Truckin' >
s2t09 Spanish Jam >
s2t10 Alabama Getaway >
s2t11 Johnny B. Goode
s2t12 Encore: U.S. Blues

Source: Unknown AUD, lo-gen tape kindly provided by Ted Gidley.

Transfer: XLII > Nakamichi CR-5A > Edirol FA-66 > Wavelab 2448 >
R8Brain > CD-Wave > TLH > FLAC 1644 tagged, Andrew F. 10/2013

Notes: Does not match the AUDs currently in the database. Some
audible tape damage first 90-seconds of Scarlet, smoothed with
crossfades. Parts of Wise & Morris AUD recordings patched in
to make the Drums complete.

    length     expanded size    cdr  WAVE problems  fmt   ratio  filename
    11:41.70      123821084 B   ---   --   ---xx   flac  0.6500  gd1981-05-05s2t01.flac
    11:02.65      116929724 B   ---   --   ---xx   flac  0.6587  gd1981-05-05s2t02.flac
    11:01.62      116746268 B   ---   --   ---xx   flac  0.6475  gd1981-05-05s2t03.flac
    10:23.70      110061884 B   ---   --   ---xx   flac  0.6617  gd1981-05-05s2t04.flac
     9:53.59      104744012 B   ---   --   ---xx   flac  0.6027  gd1981-05-05s2t05.flac
     8:27.61       89578316 B   ---   --   ---xx   flac  0.5421  gd1981-05-05s2t06.flac
    11:50.23      125298140 B   ---   --   ---xx   flac  0.6446  gd1981-05-05s2t07.flac
     6:30.12       68824268 B   ---   --   ---xx   flac  0.6574  gd1981-05-05s2t08.flac
     5:19.31       56344556 B   ---   --   ---xx   flac  0.6280  gd1981-05-05s2t09.flac
     5:19.01       56273996 B   ---   --   ---xx   flac  0.6500  gd1981-05-05s2t10.flac
     4:23.48       46506140 B   ---   --   ---xx   flac  0.6550  gd1981-05-05s2t11.flac
     5:24.32       57228908 B   ---   --   ---xx   flac  0.6431  gd1981-05-05s2t12.flac
   101:19.09     1072357296 B                            0.6368  (12 files)

No errors occured.



Show Checksums
flac-md5
d3fcbc1b10313acfb847eba8dd84a340 *gd1981-05-05s2t01.flac
8c3a48f0445a5134677c64127ca0c52b *gd1981-05-05s2t02.flac
84fae2c331f875f33223c2e36ca40fbc *gd1981-05-05s2t03.flac
38bbfef48d95954b3d43b58c3bab4f4c *gd1981-05-05s2t04.flac
e90bde4c9f5efdba65a4354f1e9074bf *gd1981-05-05s2t05.flac
52d10d898a4e67bb4d20f9e47dbb5216 *gd1981-05-05s2t06.flac
9e4ab301dd6254925af66e9936b96dcc *gd1981-05-05s2t07.flac
94705d78486dc0577ee2147e292d5d3d *gd1981-05-05s2t08.flac
10dee2a013b98ad70768bf9d0c3a95cb *gd1981-05-05s2t09.flac
a6b9007294580af27af35f40344100b5 *gd1981-05-05s2t10.flac
811145ce9ba4f244f2ec93dc423e2353 *gd1981-05-05s2t11.flac
fa1fd695d17edb46117ba9fe5d1c9e75 *gd1981-05-05s2t12.flac
ffp
gd1981-05-05s2t01.flac:dcfba9919d61c4a02a20a73ef5031fb6
gd1981-05-05s2t02.flac:ff1e1052eb29429cd059e568b0e12fe4
gd1981-05-05s2t03.flac:4cd00ee4e2a59ebb97ff556c0b4d2c2f
gd1981-05-05s2t04.flac:c00538c7df0830cf32ef0c56a6d4950f
gd1981-05-05s2t05.flac:fa1ce20d7335e7972e94720f28669a03
gd1981-05-05s2t06.flac:23f64bb26cabfe3d4dd89ae4e442f796
gd1981-05-05s2t07.flac:156b96f666dedd1843027158c7c8dc96
gd1981-05-05s2t08.flac:dddc0f36927117b4e1cb7b6f39ecebce
gd1981-05-05s2t09.flac:529be683e0189a10913f4f9bfdf1eb6c
gd1981-05-05s2t10.flac:732776b29cc86345a1617ad38e5be003
gd1981-05-05s2t11.flac:f539a3a188495bc6d2334412cca4ba60
gd1981-05-05s2t12.flac:0ce6642e67b0845c33cd72ff4a4b07c5

Comments
Add Comment
Other Sources (comments)
Recording by Jim Wise.... (1) flac16; Recording by... (5) flac16; (FOB)... (0) flac24; Cassette... (0) flac24; source: aud... (0) flac16; source: aud... (0) flac24; Jim Wise's... (0) flac16/48kHz; Jim... (0)
Date User Comment