Browse Collections Artists Sources   Search Dates

Add Show    List Management    Help


Grateful Dead 11/06/79
The Spectrum, Philadelphia, PA
Comments Add Comment    Source Collectors    Add to Collection    Add to Want List    History
Source # 125956 Other Sources
Entered by Matt Vernon
Checksums flac-md5 , ffp
Disc Counts 0 / 0
Media Size Compressed: 3.29 GB (3528462336 bytes)
Uncompressed: 5.06 GB (5434384728 bytes)
Date Circulated
Date Added
10/24/2013
10/24/2013
Source Summary flac24; Source: SBD > Nakamichi 550 > Cassette > Cassette. Transfer: Cassette > Nakamichi 1000-II > Sound Devices USB Pre-2 > WAV 2496. Edits: WAV 2496 > Wavelab > CD-Wave (24bit output) > TLH > FLAC 2496 tagged. 
  Archive
Source Information - Download Text | Download Zip
GRATEFUL DEAD
Spectrum
Philadelphia PA
11-06-1979

24bit/96kHz file-set

s1t01 Alabama Getaway >
s1t02 Promised Land
s1t03 tuning
s1t04 Tennessee Jed
s1t05 tuning
s1t06 Me & My Uncle >
s1t07 Mexicali Blues
s1t08 tuning
s1t09 Candyman
s1t10 Easy to Love You
s1t11 Looks Like Rain
s1t12 Jackaroe
s1t13 Jack Straw >
s1t14 Deal

s2t01 Terrapin >
s2t02 Playin' in the Band >
s2t03 Drums >
s2t04 Space >
s2t05 Black Peter >
s2t06 Good Lovin'
s2t07 Encore: U.S. Blues

Source: SBD > Nakamichi 550 > Cassette > Cassette.

Transfer: Cassette > Nakamichi 1000-II > Sound Devices USB Pre-2 > WAV 2496.

Edits: WAV 2496 > Wavelab > CD-Wave (24bit output) > TLH > FLAC 2496 tagged.

MSC recorded by Dan Healy using Richie's Nak 550, 1st-gen cassette transfer
by Richie Stankiewicz, edits by Andrew F. 10/2013.

Note: Upsampled patches from ID-29735 (SBD) Alabama 0:00 > 0:30, Easy to Love
You 0:00 > 0:22, Good Lovin' 1:42 > 1:44, ID-85575 (AUD) Space 2:04 > 2:52.

    length     expanded size    cdr  WAVE problems  fmt   ratio  filename
     6:34.147     227028524 B   cxx   --   ---xx   flac  0.6671  gd1979-11-06s1t01.flac
     4:16.467     147724844 B   cxx   --   ---xx   flac  0.6791  gd1979-11-06s1t02.flac
     4:25.747     153070124 B   cxx   --   ---xx   flac  0.5556  gd1979-11-06s1t03.flac
     9:20.093     322613804 B   cxx   --   ---xx   flac  0.6548  gd1979-11-06s1t04.flac
     2:06.800      73036844 B   cxx   --   ---xx   flac  0.5697  gd1979-11-06s1t05.flac
     3:18.227     114178604 B   cxx   --   ---xx   flac  0.6675  gd1979-11-06s1t06.flac
     4:24.613     152417324 B   cxx   --   ---xx   flac  0.6647  gd1979-11-06s1t07.flac
     2:44.244      94604672 B   cxx   --   ---xx   flac  0.5658  gd1979-11-06s1t08.flac
     7:23.613     255521324 B   cxx   --   ---xx   flac  0.6470  gd1979-11-06s1t09.flac
     5:25.093     187253804 B   cxx   --   ---xx   flac  0.6412  gd1979-11-06s1t10.flac
     9:44.893     336898604 B   cxx   --   ---xx   flac  0.6356  gd1979-11-06s1t11.flac
     8:47.893     304066604 B   cxx   --   ---xx   flac  0.6379  gd1979-11-06s1t12.flac
     6:42.293     231721004 B   cxx   --   ---xx   flac  0.6747  gd1979-11-06s1t13.flac
     6:40.089     230451104 B   cxx   --   ---xx   flac  0.6810  gd1979-11-06s1t14.flac
    15:06.000     521856044 B   cxx   --   ---xx   flac  0.6637  gd1979-11-06s2t01.flac
    21:43.613     750881324 B   cxx   --   ---xx   flac  0.6615  gd1979-11-06s2t02.flac
     7:49.091     270196334 B   cxx   --   ---xx   flac  0.6280  gd1979-11-06s2t03.flac
     6:09.347     212743724 B   cxx   --   ---xx   flac  0.5897  gd1979-11-06s2t04.flac
    11:19.693     391503404 B   cxx   --   ---xx   flac  0.6464  gd1979-11-06s2t05.flac
     7:15.627     250921004 B   cxx   --   ---xx   flac  0.6821  gd1979-11-06s2t06.flac
     5:57.111     205695710 B   cxx   --   ---xx   flac  0.6732  gd1979-11-06s2t07.flac
   157:14.694    5434384728 B                            0.6493  (21 files)

No errors occured.



Show Checksums
flac-md5
1c4cd23535b3b8e610778a86b0ba4b7b *gd1979-11-06s1t01.flac
aacd1451e2cb23002fa4d61e31153356 *gd1979-11-06s1t02.flac
d84269bb8122e25dffbcfbacf0512534 *gd1979-11-06s1t03.flac
f75e9eb1680644da225712c48aa8ebc7 *gd1979-11-06s1t04.flac
ccd9c55d7516259663a2514246713a04 *gd1979-11-06s1t05.flac
ace04cc156313bc6702bda6032685815 *gd1979-11-06s1t06.flac
a434bfcfa8dffb09c74cf926435ce9b3 *gd1979-11-06s1t07.flac
45b503dd76793f0f5b9242b1940122e4 *gd1979-11-06s1t08.flac
faf51fa32cfb3d95d97643c0ea301d53 *gd1979-11-06s1t09.flac
8cf8daebd7c3a330779376cdaa1ea976 *gd1979-11-06s1t10.flac
4382063d032d6fa25f1116b6d964616f *gd1979-11-06s1t11.flac
d785d12b0d93054e721e2f852b5ded9f *gd1979-11-06s1t12.flac
3cbff5c12a65cb9888fd291cc5dad245 *gd1979-11-06s1t13.flac
59f3b2728290c3d36f70ea610373038a *gd1979-11-06s1t14.flac
da19edbbfd6130bf26f2f9fa7764d8da *gd1979-11-06s2t01.flac
17e1214dcec74a93582d68556e796b4c *gd1979-11-06s2t02.flac
1676e2d6881e19acb03966e815cbe624 *gd1979-11-06s2t03.flac
7c34a15299f1c15d5594965dcb377cc0 *gd1979-11-06s2t04.flac
e37f61448e581fab87dad41a3960597f *gd1979-11-06s2t05.flac
4d9c75a9bd6266de2e21e4a34d164f4e *gd1979-11-06s2t06.flac
626358d47bd2884d8d918082dc90e01b *gd1979-11-06s2t07.flac
ffp
gd1979-11-06s1t01.flac:0d2009c0e936927c9978e293263c4732
gd1979-11-06s1t02.flac:8cfac6d5f59f61711507ca0223f04612
gd1979-11-06s1t03.flac:d0eec578f07d97d98a4ccf64aea09406
gd1979-11-06s1t04.flac:42e9960dbf0a0f5d32b588f6081fac0b
gd1979-11-06s1t05.flac:9a95c6f24904b675f6bd37e8495cf217
gd1979-11-06s1t06.flac:2e58848ce03eb495ed59768ca61b3b4d
gd1979-11-06s1t07.flac:883494c312f0495e304395ca06582be3
gd1979-11-06s1t08.flac:9268ae7156b385e49c0a05010d0943d6
gd1979-11-06s1t09.flac:d5d5ec89294f3c46147ec744ddb9141f
gd1979-11-06s1t10.flac:b47b6627ddcc3a20afed96ef49a33336
gd1979-11-06s1t11.flac:8464c3410dc088c60ac3268ae16b2ead
gd1979-11-06s1t12.flac:009831ca53bb583b9f8558f5f724199b
gd1979-11-06s1t13.flac:5143aceb668d01095abbe5ec7710ac77
gd1979-11-06s1t14.flac:f89e521c05d60b5db7945747b5bf6dcc
gd1979-11-06s2t01.flac:169aa07a476cf6048c4a41e78925403e
gd1979-11-06s2t02.flac:d19d9db3d973fd72628a2c57e7dfd92a
gd1979-11-06s2t03.flac:87459a8d74e993f4c753826a6369f56c
gd1979-11-06s2t04.flac:a685d1a2779db066f64c044e9c2e6373
gd1979-11-06s2t05.flac:ab97c067c7f2f54eac74e043776c05c1
gd1979-11-06s2t06.flac:90fce32631f5e1268b0f3b79715244cd
gd1979-11-06s2t07.flac:a0391f530c4d52e52793fa5ec16c4b4f

Comments
Add Comment
Other Sources (comments)
Master Soundboard Cassette... (1) flac16; SBD ->... (5) flac 16; set 2 only;... (0) flac16; Source: SBD... (0) flac16; Soundboard;... (0)
Date User Comment