Browse Collections Artists Sources   Search Dates

Add Show    List Management    Help


Grateful Dead 11/06/79
The Spectrum, Philadelphia, PA
Comments Add Comment    Source Collectors    Add to Collection    Add to Want List    History
Source # 125957 Other Sources
Entered by Matt Vernon
Checksums ffp , flac-md5
Disc Counts 0 / 0
Media Size Compressed: 936.89 MB (982396928 bytes)
Uncompressed: 1.55 GB (1664283180 bytes)
Date Circulated
Date Added
10/24/2013
10/24/2013
Source Summary flac16; Source: SBD > Nakamichi 550 > Cassette > Cassette. Transfer: Cassette > Nakamichi 1000-II > Sound Devices USB Pre-2 > WAV 2496. Edits: WAV 2496 > Wavelab > R8Brain > CD-Wave > TLH > FLAC 1644 tagged. 
  Archive
Source Information - Download Text | Download Zip
GRATEFUL DEAD
Spectrum
Philadelphia PA
11-06-1979

16bit/44.1kHz file-set

s1t01 Alabama Getaway >
s1t02 Promised Land
s1t03 tuning
s1t04 Tennessee Jed
s1t05 tuning
s1t06 Me & My Uncle >
s1t07 Mexicali Blues
s1t08 tuning
s1t09 Candyman
s1t10 Easy to Love You
s1t11 Looks Like Rain
s1t12 Jackaroe
s1t13 Jack Straw >
s1t14 Deal

s2t01 Terrapin >
s2t02 Playin' in the Band >
s2t03 Drums >
s2t04 Space >
s2t05 Black Peter >
s2t06 Good Lovin'
s2t07 Encore: U.S. Blues

Source: SBD > Nakamichi 550 > Cassette > Cassette.

Transfer: Cassette > Nakamichi 1000-II > Sound Devices USB Pre-2 > WAV 2496.

Edits: WAV 2496 > Wavelab > R8Brain > CD-Wave > TLH > FLAC 1644 tagged.

MSC recorded by Dan Healy using Richie's Nak 550, 1st-gen cassette transfer
by Richie Stankiewicz, edits by Andrew F. 10/2013.

Note: Upsampled patches from ID-29735 (SBD) Alabama 0:00 > 0:30, Easy to Love
You 0:00 > 0:22, Good Lovin' 1:42 > 1:44, ID-85575 (AUD) Space 2:04 > 2:52.
CDR Burning: Fits on two discs by cutting any one of the "tuning" tracks.

    length     expanded size    cdr  WAVE problems  fmt   ratio  filename
     6:34.12       69529868 B   ---   --   ---xx   flac  0.6474  gd1979-11-06s1t01.flac
     4:16.37       45245468 B   ---   --   ---xx   flac  0.6585  gd1979-11-06s1t02.flac
     4:25.52       46868348 B   ---   --   ---xx   flac  0.3942  gd1979-11-06s1t03.flac
     9:20.09       98805212 B   ---   --   ---xx   flac  0.6081  gd1979-11-06s1t04.flac
     2:06.59       22365212 B   ---   --   ---xx   flac  0.4280  gd1979-11-06s1t05.flac
     3:18.18       34969580 B   ---   --   ---xx   flac  0.6371  gd1979-11-06s1t06.flac
     4:24.46       46677836 B   ---   --   ---xx   flac  0.6292  gd1979-11-06s1t07.flac
     2:44.17       28969628 B   ---   --   ---xx   flac  0.4205  gd1979-11-06s1t08.flac
     7:23.48       78258140 B   ---   --   ---xx   flac  0.5902  gd1979-11-06s1t09.flac
     5:25.05       57341804 B   ---   --   ---xx   flac  0.5815  gd1979-11-06s1t10.flac
     9:44.66      103172876 B   ---   --   ---xx   flac  0.5517  gd1979-11-06s1t11.flac
     8:47.68       93122780 B   ---   --   ---xx   flac  0.5570  gd1979-11-06s1t12.flac
     6:42.22       70964588 B   ---   --   ---xx   flac  0.6422  gd1979-11-06s1t13.flac
     6:40.06       70574156 B   ---   --   ---xx   flac  0.6608  gd1979-11-06s1t14.flac
    15:06.00      159818444 B   ---   --   ---xx   flac  0.6220  gd1979-11-06s2t01.flac
    21:43.45      229955084 B   ---   --   ---xx   flac  0.6173  gd1979-11-06s2t02.flac
     7:49.08       82750460 B   ---   --   ---xx   flac  0.5469  gd1979-11-06s2t03.flac
     6:09.26       65152796 B   ---   --   ---xx   flac  0.4793  gd1979-11-06s2t04.flac
    11:19.52      119897948 B   ---   --   ---xx   flac  0.5681  gd1979-11-06s2t05.flac
     7:15.46       76842236 B   ---   --   ---xx   flac  0.6452  gd1979-11-06s2t06.flac
     5:57.11       63000716 B   ---   --   ---xx   flac  0.6268  gd1979-11-06s2t07.flac
   157:14.53     1664283180 B                            0.5902  (21 files)

No errors occured.



Show Checksums
ffp
gd1979-11-06s1t01.flac:9152628e7df62725db214720ce9cac31
gd1979-11-06s1t02.flac:41ba8b79bf9df2dd1142437178fd4c81
gd1979-11-06s1t03.flac:2aaa4ba46764ad1f3fb484a5cf4b1f9b
gd1979-11-06s1t04.flac:e8dfc3fe7bc7e9ecd9bc9c3a51765b7a
gd1979-11-06s1t05.flac:a2d587f2a1c4342a4518e20412884282
gd1979-11-06s1t06.flac:eb6f41b7f66b1dd0bdba42dbf0da0707
gd1979-11-06s1t07.flac:d72e15efe2b3bf5d984f10391bf9a964
gd1979-11-06s1t08.flac:8844856f691bd4789b52e7e288e30486
gd1979-11-06s1t09.flac:46190f9b41fcd79d75d7cbc030576589
gd1979-11-06s1t10.flac:5a315fe18efd36d32394d5511519a406
gd1979-11-06s1t11.flac:2dada4a98671aa9b2934eefc0a5e40da
gd1979-11-06s1t12.flac:ef5d7c8ffd35c1584678c07038b4a055
gd1979-11-06s1t13.flac:a660a3f8dcb1fbf3fd6ff13d15e90093
gd1979-11-06s1t14.flac:2603a5ae485e1ed561363a5f80a994b0
gd1979-11-06s2t01.flac:3dadd61aca8794508b8e8c7a274e238c
gd1979-11-06s2t02.flac:a75ce2b7f221cb11011a3ae0ff6de98a
gd1979-11-06s2t03.flac:7d487e94ca475532e29186b14ae925a0
gd1979-11-06s2t04.flac:2d403581e0f96347318d69d5f6ae1d89
gd1979-11-06s2t05.flac:c59519137c1d03fc9554f3a22534df1c
gd1979-11-06s2t06.flac:6dfef602ba7e3dc77e2df93fc9b4ba10
gd1979-11-06s2t07.flac:9a05683162787b24264fc7ea49a1e4fa
flac-md5
b07e271acb86ce248519f539d56b5ffb *gd1979-11-06s1t01.flac
fe9abb075851fa59fa2cfec95aedd6b5 *gd1979-11-06s1t02.flac
eb734e8f2cad14304eca1ac77ad19c2e *gd1979-11-06s1t03.flac
43ed38ae0d960183a8865a1530f953f0 *gd1979-11-06s1t04.flac
4935400da4ace7b84e4b3150640c92a3 *gd1979-11-06s1t05.flac
f0f00be7508666a37038a03399261f19 *gd1979-11-06s1t06.flac
4c962a92b1f72bf3b12d5a66ecd9e62d *gd1979-11-06s1t07.flac
b6e031514cac167a7c5a2e6df977e87a *gd1979-11-06s1t08.flac
205f5854f32a193e16187d09242fbc8d *gd1979-11-06s1t09.flac
9fb2c14b504d77437bdbbf56add188c1 *gd1979-11-06s1t10.flac
d2d7d21698e9c4f2b5ea3c06f81432a7 *gd1979-11-06s1t11.flac
670d8e730a47c0a1ed15fe46d276ab0e *gd1979-11-06s1t12.flac
f550a8415b77a6e5a049d19e5dea79a2 *gd1979-11-06s1t13.flac
52cc47d2e8ee8b9ebe16836106d08336 *gd1979-11-06s1t14.flac
172d1e3871b1ba6c03bccf559c095090 *gd1979-11-06s2t01.flac
c706b9ea43926d7d388041a89048a6bd *gd1979-11-06s2t02.flac
8e31904553c6b74db0b07b6c2162e521 *gd1979-11-06s2t03.flac
a232f87734be17c7068230c46e24edb9 *gd1979-11-06s2t04.flac
d7db02ecc553eee39116bcee24541608 *gd1979-11-06s2t05.flac
f813eee549744bd9be8d4473f3027e8e *gd1979-11-06s2t06.flac
c09b9f06859faf4579f81c7813697494 *gd1979-11-06s2t07.flac

Comments
Add Comment
Other Sources (comments)
Master Soundboard Cassette... (1) flac16; SBD ->... (5) flac 16; set 2 only;... (0) flac24; Source: SBD... (0) flac16; Soundboard;... (0)
Date User Comment