Browse Collections Artists Sources   Search Dates

Add Show    List Management    Help


Grateful Dead 05/14/80
Nassau Coliseum, Uniondale, NY
Comments Add Comment    Source Collectors    Add to Collection    Add to Want List    History
Source # 125962 Other Sources
Entered by Matt Vernon
Checksums orig-md5 , orig-ffp , ffp , flac-md5
Disc Counts 0 / 0
Media Size Compressed: 3.2 GB (3433200495 bytes)
Uncompressed: 4.93 GB (5296514186 bytes)
Date Circulated
Date Added
10/26/2013
10/26/2013
Source Summary flac24; Recording by Jim Wise: Master Audience Cassette; 2 Nakamichi 700's with 1 Nakamichi 300 Blend> Nak 550> Sony D-5 at the SBD; Transfer and FLAC encoding by David Minches: October 25 2013; Master played back on: Nakamichi Dragon > Korg MR-1000(DSF [1-bit 5.6448 MHz Stereo]) Korg AudioGate > WAV [24/96] > Adobe Audition 3.0 > FLAC encoding 
  Archive
Source Information - Download Text | Download Zip
Grateful Dead
1980-05-14 (Wednesday)
Nassau Veterans Memorial Coliseum
Uniondale, NY

Recording by Jim Wise:
Master Audience Cassette

2 Nakamichi 700's with 1 Nakamichi 300 Blend> Nak 550> Sony D-5 at the SBD

Transfer and FLAC encoding by David Minches:
October 25 2013

Master played back on:
Nakamichi Dragon > Korg MR-1000(DSF [1-bit 5.6448 MHz Stereo]) Korg AudioGate >
WAV [24/96] > Adobe Audition 3.0 > FLAC encoding


Set 1
s1t01 - Tuning
s1t02 - Alabama Getaway >
s1t03 - Promised Land
s1t04 - Candyman
s1t05 - Mexicali Blues >
s1t06 - El Paso
s1t07 - Tennessee Jed
s1t08 - Let It Grow >
s1t09 - Althea
s1t10 - Easy To Love You
s1t11 - The Music Never Stopped

Set 2
s1t01 - Tuning
s2t02 - Feel Like A Stranger >
s2t03 - Sugaree >
s2t04 - Lost Sailor >
s2t05 - St. of Circumstance >
s2t06 - Jam >
s2t07 - Comes A Time* >
s2t08 - The Other One >
s2t09 - Drums >
s2t10 - Space >
s2t11 - Black  Peter >
s2t12 - Around & Around >
s2t13 - Johnny B. Goode
s2t14 - Don't Ease Me In

* patched with Glassberg master


    length     expanded size    cdr  WAVE problems  fmt   ratio  filename
     0:16.196       9329210 B   cxx   --   ---xx   flac  0.6511  s01t01 - Tuning.flac
     4:02.712     139801988 B   cxx   --   ---xx   flac  0.6629  s01t02 - Alabama Getway.flac
     5:29.975     190065428 B   cxx   --   ---xx   flac  0.6556  s01t03 - Promised Land.flac
     8:26.995     292028966 B   cxx   --   ---xx   flac  0.6491  s01t04 - Candyman.flac
     4:33.334     157440656 B   cxx   --   ---xx   flac  0.6598  s01t05 - Mexicali Blues.flac
     4:49.243     166604216 B   cxx   --   ---xx   flac  0.6488  s01t06 - El Paso.flac
    10:43.649     370742024 B   cxx   --   ---xx   flac  0.6528  s01t07 - Tennessee Jed.flac
     8:47.236     303687746 B   cxx   --   ---xx   flac  0.6572  s01t08 - Let It Grow.flac
     9:43.363     336017384 B   cxx   --   ---xx   flac  0.6479  s01t09 - Althea.flac
     3:43.174     128548238 B   cxx   --   ---xx   flac  0.6575  s01t10 - Easy To Love You.flac
     7:39.405     264617270 B   cxx   --   ---xx   flac  0.6599  s01t11 - The Music Never Stopped.flac
     3:00.509     103973288 B   cxx   --   ---xx   flac  0.6273  s02t01 - Tuning.flac
     7:49.240     270282350 B   cxx   --   ---xx   flac  0.6477  s02t02 - Feel Like A Stranger.flac
    10:59.674     379972028 B   cxx   --   ---xx   flac  0.6499  s02t03 - Sugaree.flac
     6:09.145     212627570 B   cxx   --   ---xx   flac  0.6439  s02t04 - Lost Sailor.flac
     5:50.049     201628028 B   cxx   --   ---xx   flac  0.6579  s02t05 - St. of Circumstance.flac
     2:48.364      96977684 B   cxx   --   ---xx   flac  0.6422  s02t06 - Jam.flac
     9:19.508     322276934 B   cxx   --   ---xx   flac  0.6333  s02t07 - Comes A Time.flac
     6:13.324     215034704 B   cxx   --   ---xx   flac  0.6541  s02t08 - The Other One.flac
     8:43.126     301320872 B   cxx   --   ---xx   flac  0.6439  s02t09 - Drums.flac
     3:02.904     105352688 B   cxx   --   ---xx   flac  0.6187  s02t10 - Space.flac
     9:02.015     312200420 B   cxx   --   ---xx   flac  0.6338  s02t11 - Black Peter.flac
     3:52.383     133852934 B   cxx   --   ---xx   flac  0.6454  s02t12 - Around & Around.flac
     4:38.698     160530062 B   cxx   --   ---xx   flac  0.6475  s02t13 - Johnny B. Goode.flac
     3:31.114     121601498 B   cxx   --   ---xx   flac  0.6460  s02t14 - Don't Ease Me In.flac
   153:15.335    5296514186 B                            0.6482  (25 files)





Show Checksums
orig-md5
7b97bc0693ba26ed489da7fa033fde13 *s01t01 - Tuning.flac
dfc31097a3a1f45700da1633e7c543a7 *s01t02 - Alabama Getway.flac
2c46491b687946ac503488aa45346d04 *s01t03 - Promised Land.flac
e4d42a84cfc877d8faa9036399b12cc0 *s01t04 - Candyman.flac
e901e124decc4f28f7abc531996b5882 *s01t05 - Mexicali Blues.flac
86a5aa964b4688a40fd2cf3ef1193fda *s01t06 - El Paso.flac
c4413f51bdd8faa97bfadc6d2740e8b8 *s01t07 - Tennessee Jed.flac
6c289426ea239be7d4d91560d24ad32a *s01t08 - Let It Grow.flac
9facb77edad832f6a769e3821ae9436e *s01t09 - Althea.flac
b13b3c9c73f3c8190378b6fd21ce6bfc *s01t10 - Easy To Love You.flac
e689eff7aa70717998bfe21bc3590ef7 *s01t11 - The Music Never Stopped.flac
f0cda007113d07cc627f930339df39a9 *s02t01 - Tuning.flac
695ef63f0ffb0f4844680ca0834d1bdf *s02t02 - Feel Like A Stranger.flac
cf1f69d53bf9cae02c78ebf78ed0809e *s02t03 - Sugaree.flac
7ef516c697459a2d18dc7da9fa90a6e7 *s02t04 - Lost Sailor.flac
c72bba349b4781dca869e298f068fd59 *s02t05 - St. of Circumstance.flac
993d124c108ba64ce25e2e07cb043786 *s02t06 - Jam.flac
ed8dc4e95abde9517e1241fb4386b929 *s02t07 - Comes A Time.flac
b33faa595da34a963eaafa0a6749f4a8 *s02t08 - The Other One.flac
959acdc38da75bae7ad7a3389aedf0ef *s02t09 - Drums.flac
8233f7a88baeadad4d3141746baa5896 *s02t10 - Space.flac
dd1f4bfe45f74f8ea692696b392c3d36 *s02t11 - Black Peter.flac
3f0d35fa815360d2e8c282f14f54d54e *s02t12 - Around & Around.flac
e066df232a4271e504183bfc5a9ca41f *s02t13 - Johnny B. Goode.flac
066d8b492b08664085202a43799d3b96 *s02t14 - Don't Ease Me In.flac
orig-ffp
s01t01 - Tuning.flac:38ce358ec7ad17853618c2cdfd687c9c
s01t02 - Alabama Getway.flac:f4b85afeeb79c3fe6be56a1ad70648a8
s01t03 - Promised Land.flac:f614305c9c1e93866c733185f90eb4f5
s01t04 - Candyman.flac:3ca6e0140ea32d22fa4bc03c05a03481
s01t05 - Mexicali Blues.flac:8d64e28c3402c387fbf2539e8815fa44
s01t06 - El Paso.flac:e92d6ac04a69fc3547954e1c75976f26
s01t07 - Tennessee Jed.flac:2a8f31f8276ab96d6149627fb1a2bd2d
s01t08 - Let It Grow.flac:eb859f567b80d0d021f08b0d88fe162d
s01t09 - Althea.flac:9c9186e2a8239d0b2a78c58f5df070e1
s01t10 - Easy To Love You.flac:8cc5e59d0b421b814ea8b82c7ef45c7a
s01t11 - The Music Never Stopped.flac:2d8d30b0a6f0d70343cf6d12e04901ce
s02t01 - Tuning.flac:43749bf962642eeed2938d0120417210
s02t02 - Feel Like A Stranger.flac:d3d37765812494ba12a8fc24a993b685
s02t03 - Sugaree.flac:d981fc3e3f557cd4d2fd8c5ba337dff1
s02t04 - Lost Sailor.flac:a0c4c38140bc5156cc07e9e9474c3f02
s02t05 - St. of Circumstance.flac:c5900b8f06c31304c1c7390e279a932a
s02t06 - Jam.flac:a3d2cd0199f6c952fb9cb7134af0ccf7
s02t07 - Comes A Time.flac:52d0bdb936c179d7e03a61a334dcece5
s02t08 - The Other One.flac:9f10f48f4b583cd103043af0386deffd
s02t09 - Drums.flac:446f900f8dfab4671b46c28897668e26
s02t10 - Space.flac:d11735e866b2bb376b4495f1f149a9d5
s02t11 - Black Peter.flac:26e29590846c8cbe33217461bea66c22
s02t12 - Around & Around.flac:acfe5464c1703b507a447dd1a63dd3fa
s02t13 - Johnny B. Goode.flac:b8a02542498c6091531fe5380455ee66
s02t14 - Don't Ease Me In.flac:63e953ab9c6d3dcb459b2cef701f2c9d
ffp
s01t01.flac:38ce358ec7ad17853618c2cdfd687c9c
s01t02.flac:f4b85afeeb79c3fe6be56a1ad70648a8
s01t03.flac:f614305c9c1e93866c733185f90eb4f5
s01t04.flac:3ca6e0140ea32d22fa4bc03c05a03481
s01t05.flac:8d64e28c3402c387fbf2539e8815fa44
s01t06.flac:e92d6ac04a69fc3547954e1c75976f26
s01t07.flac:2a8f31f8276ab96d6149627fb1a2bd2d
s01t08.flac:eb859f567b80d0d021f08b0d88fe162d
s01t09.flac:9c9186e2a8239d0b2a78c58f5df070e1
s01t10.flac:8cc5e59d0b421b814ea8b82c7ef45c7a
s01t11.flac:2d8d30b0a6f0d70343cf6d12e04901ce
s02t01.flac:43749bf962642eeed2938d0120417210
s02t02.flac:d3d37765812494ba12a8fc24a993b685
s02t03.flac:d981fc3e3f557cd4d2fd8c5ba337dff1
s02t04.flac:a0c4c38140bc5156cc07e9e9474c3f02
s02t05.flac:c5900b8f06c31304c1c7390e279a932a
s02t06.flac:a3d2cd0199f6c952fb9cb7134af0ccf7
s02t07.flac:52d0bdb936c179d7e03a61a334dcece5
s02t08.flac:9f10f48f4b583cd103043af0386deffd
s02t09.flac:446f900f8dfab4671b46c28897668e26
s02t10.flac:d11735e866b2bb376b4495f1f149a9d5
s02t11.flac:26e29590846c8cbe33217461bea66c22
s02t12.flac:acfe5464c1703b507a447dd1a63dd3fa
s02t13.flac:b8a02542498c6091531fe5380455ee66
s02t14.flac:63e953ab9c6d3dcb459b2cef701f2c9d
flac-md5
7b97bc0693ba26ed489da7fa033fde13 *s01t01.flac
dfc31097a3a1f45700da1633e7c543a7 *s01t02.flac
2c46491b687946ac503488aa45346d04 *s01t03.flac
e4d42a84cfc877d8faa9036399b12cc0 *s01t04.flac
e901e124decc4f28f7abc531996b5882 *s01t05.flac
86a5aa964b4688a40fd2cf3ef1193fda *s01t06.flac
c4413f51bdd8faa97bfadc6d2740e8b8 *s01t07.flac
6c289426ea239be7d4d91560d24ad32a *s01t08.flac
9facb77edad832f6a769e3821ae9436e *s01t09.flac
b13b3c9c73f3c8190378b6fd21ce6bfc *s01t10.flac
e689eff7aa70717998bfe21bc3590ef7 *s01t11.flac
f0cda007113d07cc627f930339df39a9 *s02t01.flac
695ef63f0ffb0f4844680ca0834d1bdf *s02t02.flac
cf1f69d53bf9cae02c78ebf78ed0809e *s02t03.flac
7ef516c697459a2d18dc7da9fa90a6e7 *s02t04.flac
c72bba349b4781dca869e298f068fd59 *s02t05.flac
993d124c108ba64ce25e2e07cb043786 *s02t06.flac
ed8dc4e95abde9517e1241fb4386b929 *s02t07.flac
b33faa595da34a963eaafa0a6749f4a8 *s02t08.flac
959acdc38da75bae7ad7a3389aedf0ef *s02t09.flac
8233f7a88baeadad4d3141746baa5896 *s02t10.flac
dd1f4bfe45f74f8ea692696b392c3d36 *s02t11.flac
3f0d35fa815360d2e8c282f14f54d54e *s02t12.flac
e066df232a4271e504183bfc5a9ca41f *s02t13.flac
066d8b492b08664085202a43799d3b96 *s02t14.flac

Comments
Add Comment
Other Sources (comments)
Master Soundboard Cassette... (0) flac16; Sony ECM-990... (0) flac16; Analog... (0) flac16; 2 source... (0) flac16; Source Info:... (0)
Date User Comment