Browse Collections Artists Sources   Search Dates

Add Show    List Management    Help


Phish 10/25/13
DCU Center, Worcester, MA
Comments Add Comment    Source Collectors    Add to Collection    Add to Want List    History
Source # 125978 Other Sources
Entered by Jason Sobel
Checksums 16bit-FFP
Disc Counts 0 / 0
Media Size Compressed: 988.82 MB (1036856480 bytes)
Date Circulated
Date Added
10/27/2013
10/27/2013
Source Summary flac16; Schoeps MK41 > KC5 > CMC6 > Sonosax SX-R4 (24bit/96khz); WAV > USB > Macbook Pro > Wave Editor (tracking, fades, resample/dither to 16 bit/44.1k) > XAct (FLAC Level 8); Taped & Transferred by Andy Murray 
Source Information - Download Text | Download Zip
Phish
2013-10-25
DCU Center
Worcester, MA

Source:
Schoeps MK41>KC5>CMC6>Sonosax SX-R4 (24bit/96khz)
mics were DIN

Lineage:
WAV>USB>Macbook Pro>Wave Editor(tracking,fades,resample(izotope)/dither(mbit+)to 16 bit/44.1k)>XAct(FLAC 8,ffp,fix sbe)

Taped by: Andy Murray
Transferred by: Andy Murray

2 Sets

Set 1:

01 crowd
02 Funky Bitch
03 Wolfman's Brother
04 Wilson >
05 The Curtain With
06 Cities >
07 Rift
08 Free
09 My Mind's Got a Mind of its Own
10 Vultures
11 46 Days

Set 2:
01 crowd
02 Waves >
03 Carini
04 Prince Caspian[1] >
05 Backwards Down the Number Line >
06 Ghost >
07 Dirt >
08 Down with Disease[1] >
09 Sneakin' Sally Through the Alley >
10 Cavern >
11 Run Like an Antelope
12 encore break

Encore:

13 Contact >
14 Suzy Greenberg >
15 Rocky Top >
16 Good Times Bad Times

[1] Unfinished.

Notes: MMGAMOIO was last played on December 28, 2010 (109 shows). Caspian and DWD were unfinished.

;flac fingerprints generated by xACT 2.24 on 2013-10-27 08:10:46 -0400

ph2013-10-25_mk41_1644_d1t01.flac:de2d12e7000e3c5949c3338d96d5af49
ph2013-10-25_mk41_1644_d1t02.flac:fab46cd8b8810d5861a937e1381314cb
ph2013-10-25_mk41_1644_d1t03.flac:cb8eb4546d0a6057e7665eb7b314d14e
ph2013-10-25_mk41_1644_d1t04.flac:ecc76bb268e019923249acf8866e6537
ph2013-10-25_mk41_1644_d1t05.flac:90eb3bc1571813cb4e2f4dc698a2c888
ph2013-10-25_mk41_1644_d1t06.flac:95d1aecea48d3eb0abfae6d31b3f8d1b
ph2013-10-25_mk41_1644_d1t07.flac:54291ebc4928ca8301cf67d2494cecb7
ph2013-10-25_mk41_1644_d1t08.flac:75e3ee73fd88bf1eb5227b316722b2c4
ph2013-10-25_mk41_1644_d1t09.flac:0f0ed9d5e95d8d6840941749a4b91a9a
ph2013-10-25_mk41_1644_d1t10.flac:1601aab83b77d8826fafb9ab143b7a9c
ph2013-10-25_mk41_1644_d1t11.flac:6ee55208fdcc12262f4961c71c2833e2
ph2013-10-25_mk41_1644_d2t01.flac:a180f2b7d6e99652aea264cffbc7c231
ph2013-10-25_mk41_1644_d2t02.flac:a9baf5507e49db90985cd2ffd75ab6b8
ph2013-10-25_mk41_1644_d2t03.flac:1c9c6c60ee49b932d84d5e53a4902f7d
ph2013-10-25_mk41_1644_d2t04.flac:6d35ef7984025cfd96b31472effa30b7
ph2013-10-25_mk41_1644_d2t05.flac:90fc2ff0b774300f487dacf81caca1ae
ph2013-10-25_mk41_1644_d2t06.flac:5cef4dca494d9e604ef7d355099af79d
ph2013-10-25_mk41_1644_d2t07.flac:7d7db6628b824c8b9449dfcc1b022c79
ph2013-10-25_mk41_1644_d2t08.flac:caf2ac2cd5c847b196d25f7d6f24404d
ph2013-10-25_mk41_1644_d2t09.flac:81984aeb8c161ab93d4235677166379d
ph2013-10-25_mk41_1644_d2t10.flac:03694cebd67c31a45a6649d215ea9706
ph2013-10-25_mk41_1644_d2t11.flac:601ea1feaf6f9b985e78e8a9b2950c54
ph2013-10-25_mk41_1644_d2t12.flac:4eadf77dba9caac5311c65d32e2c335f
ph2013-10-25_mk41_1644_d2t13.flac:f0f1f80e4c9de23b73cf9cee8e38b436
ph2013-10-25_mk41_1644_d2t14.flac:2ab6b6bcef5fa24ec9030fc3e29678fa
ph2013-10-25_mk41_1644_d2t15.flac:72c087aa386617ff07ee4d9a192b9587
ph2013-10-25_mk41_1644_d2t16.flac:2c67e7bac33a4857f616b7fd31d9bff9

    length     expanded size    cdr  WAVE problems  fmt   ratio  filename
     1:08.06       12009356 B   ---   --   -----    wav  1.0000  ph2013-10-25_mk41_1644_d1t01.wav
     6:43.01       71091596 B   ---   --   -----    wav  1.0000  ph2013-10-25_mk41_1644_d1t02.wav
    10:04.53      106670300 B   ---   --   -----    wav  1.0000  ph2013-10-25_mk41_1644_d1t03.wav
     4:46.00       50450444 B   ---   --   -----    wav  1.0000  ph2013-10-25_mk41_1644_d1t04.wav
    13:41.62      144970268 B   ---   --   -----    wav  1.0000  ph2013-10-25_mk41_1644_d1t05.wav
     6:14.06       65987756 B   ---   --   -----    wav  1.0000  ph2013-10-25_mk41_1644_d1t06.wav
     6:12.54       65747852 B   ---   --   -----    wav  1.0000  ph2013-10-25_mk41_1644_d1t07.wav
     8:10.32       86511308 B   ---   --   -----    wav  1.0000  ph2013-10-25_mk41_1644_d1t08.wav
     3:02.44       32208332 B   ---   --   -----    wav  1.0000  ph2013-10-25_mk41_1644_d1t09.wav
     7:02.23       74494940 B   ---   --   -----    wav  1.0000  ph2013-10-25_mk41_1644_d1t10.wav
     8:17.20       87717884 B   ---   --   -----    wav  1.0000  ph2013-10-25_mk41_1644_d1t11.wav
     1:28.00       15523244 B   ---   --   -----    wav  1.0000  ph2013-10-25_mk41_1644_d2t01.wav
    12:50.10      135851564 B   ---   --   -----    wav  1.0000  ph2013-10-25_mk41_1644_d2t02.wav
     9:48.52      103845548 B   ---   --   -----    wav  1.0000  ph2013-10-25_mk41_1644_d2t03.wav
     5:51.50       62034044 B   ---   --   -----    wav  1.0000  ph2013-10-25_mk41_1644_d2t04.wav
     7:49.54       82858652 B   ---   --   -----    wav  1.0000  ph2013-10-25_mk41_1644_d2t05.wav
    12:24.32      131316908 B   ---   --   -----    wav  1.0000  ph2013-10-25_mk41_1644_d2t06.wav
     5:37.70       59611484 B   ---   --   -----    wav  1.0000  ph2013-10-25_mk41_1644_d2t07.wav
    10:49.52      114605948 B   ---   --   -----    wav  1.0000  ph2013-10-25_mk41_1644_d2t08.wav
     6:34.57       69635708 B   ---   --   -----    wav  1.0000  ph2013-10-25_mk41_1644_d2t09.wav
     4:32.72       48150188 B   ---   --   -----    wav  1.0000  ph2013-10-25_mk41_1644_d2t10.wav
    10:25.06      110264156 B   ---   --   -----    wav  1.0000  ph2013-10-25_mk41_1644_d2t11.wav
     2:57.16       31260476 B   ---   --   -----    wav  1.0000  ph2013-10-25_mk41_1644_d2t12.wav
     6:41.25       70795244 B   ---   --   -----    wav  1.0000  ph2013-10-25_mk41_1644_d2t13.wav
     6:13.34       65877212 B   ---   --   -----    wav  1.0000  ph2013-10-25_mk41_1644_d2t14.wav
     2:33.35       27071564 B   ---   --   -----    wav  1.0000  ph2013-10-25_mk41_1644_d2t15.wav
     6:05.51       64505996 B   ---   --   -----    wav  1.0000  ph2013-10-25_mk41_1644_d2t16.wav
   188:07.17     1991067972 B                            1.0000  (27 files)


Show Checksums
16bit-FFP
ph2013-10-25_mk41_1644_d1t01.flac:de2d12e7000e3c5949c3338d96d5af49
ph2013-10-25_mk41_1644_d1t02.flac:fab46cd8b8810d5861a937e1381314cb
ph2013-10-25_mk41_1644_d1t03.flac:cb8eb4546d0a6057e7665eb7b314d14e
ph2013-10-25_mk41_1644_d1t04.flac:ecc76bb268e019923249acf8866e6537
ph2013-10-25_mk41_1644_d1t05.flac:90eb3bc1571813cb4e2f4dc698a2c888
ph2013-10-25_mk41_1644_d1t06.flac:95d1aecea48d3eb0abfae6d31b3f8d1b
ph2013-10-25_mk41_1644_d1t07.flac:54291ebc4928ca8301cf67d2494cecb7
ph2013-10-25_mk41_1644_d1t08.flac:75e3ee73fd88bf1eb5227b316722b2c4
ph2013-10-25_mk41_1644_d1t09.flac:0f0ed9d5e95d8d6840941749a4b91a9a
ph2013-10-25_mk41_1644_d1t10.flac:1601aab83b77d8826fafb9ab143b7a9c
ph2013-10-25_mk41_1644_d1t11.flac:6ee55208fdcc12262f4961c71c2833e2
ph2013-10-25_mk41_1644_d2t01.flac:a180f2b7d6e99652aea264cffbc7c231
ph2013-10-25_mk41_1644_d2t02.flac:a9baf5507e49db90985cd2ffd75ab6b8
ph2013-10-25_mk41_1644_d2t03.flac:1c9c6c60ee49b932d84d5e53a4902f7d
ph2013-10-25_mk41_1644_d2t04.flac:6d35ef7984025cfd96b31472effa30b7
ph2013-10-25_mk41_1644_d2t05.flac:90fc2ff0b774300f487dacf81caca1ae
ph2013-10-25_mk41_1644_d2t06.flac:5cef4dca494d9e604ef7d355099af79d
ph2013-10-25_mk41_1644_d2t07.flac:7d7db6628b824c8b9449dfcc1b022c79
ph2013-10-25_mk41_1644_d2t08.flac:caf2ac2cd5c847b196d25f7d6f24404d
ph2013-10-25_mk41_1644_d2t09.flac:81984aeb8c161ab93d4235677166379d
ph2013-10-25_mk41_1644_d2t10.flac:03694cebd67c31a45a6649d215ea9706
ph2013-10-25_mk41_1644_d2t11.flac:601ea1feaf6f9b985e78e8a9b2950c54
ph2013-10-25_mk41_1644_d2t12.flac:4eadf77dba9caac5311c65d32e2c335f
ph2013-10-25_mk41_1644_d2t13.flac:f0f1f80e4c9de23b73cf9cee8e38b436
ph2013-10-25_mk41_1644_d2t14.flac:2ab6b6bcef5fa24ec9030fc3e29678fa
ph2013-10-25_mk41_1644_d2t15.flac:72c087aa386617ff07ee4d9a192b9587
ph2013-10-25_mk41_1644_d2t16.flac:2c67e7bac33a4857f616b7fd31d9bff9

Comments
Add Comment
Other Sources (comments)
flac16; Schoeps... (0) flac16; AKG ck8x >... (0) flac16; AKG ck63 >... (0) flac16; AKG C414xls... (0) flac24; Schoeps MK41... (0) flac16; DPA 4011 >... (0) flac24; DPA 4011 >... (0) flac16; Schoeps... (0) flac24; Schoeps... (0)
Date User Comment