Browse Collections Artists Sources   Search Dates

Add Show    List Management    Help


Phish 10/26/13
DCU Center, Worcester, MA
Comments Add Comment    Source Collectors    Add to Collection    Add to Want List    History
Source # 125980 Other Sources
Entered by Jason Sobel
Checksums 16bit-FFP
Disc Counts 0 / 0
Media Size Compressed: 934.52 MB (979916103 bytes)
Date Circulated
Date Added
10/27/2013
10/27/2013
Source Summary flac16; Schoeps MK41 > KC5 > CMC6 > Sonosax SX-R4 (24bit/96khz); WAV > USB > Macbook Pro > Wave Editor (tracking, fades, resample/dither to 16 bit/44.1k) > XAct (FLAC Level 8); Taped & Transferred by Andy Murray 
Source Information - Download Text | Download Zip
Phish
2013-10-26
DCU Center
Worcester, MA

Source:
Schoeps MK41>KC5>CMC6>Sonosax SX-R4 (24bit/96khz)
mics were DIN

Lineage:
WAV>USB>Macbook Pro>Wave Editor(tracking,fades,resample(izotope)/dither(mbit+)to 16 bit/44.1k)>XAct(FLAC 8,ffp,fix sbe)

Taped by: Andy Murray
Transferred by: Andy Murray

2 Sets

Set 1:

01 crowd
02 Party Time
03 Punch You In the Eye >
04 Back on the Train
05 My Soul
06 Bathtub Gin
07 Ride Captain Ride
08 Stash
09 Simple >
10 David Bowie
11 Character Zero

Set 2:

01 crowd
02 Drowned >
03 Light
04 Sand >
05 Theme From the Bottom >
06 Mike's Song >
07 No Quarter >
08 Weekapaug Groove

Encore:
09 encore break
10 Boogie On Reggae Woman
11 Possum[1]

[1] W/ Kenwood Dennard on drums.

;flac fingerprints generated by xACT 2.24 on 2013-10-27 09:57:08 -0400

ph2013-10-26_mk41_1644_d1t01.flac:c66ba07750236c28b1eba988556f9f46
ph2013-10-26_mk41_1644_d1t02.flac:c8e1591a28d30a6e3495228c9fd0a088
ph2013-10-26_mk41_1644_d1t03.flac:d1e1bbb3ab2b0957c00f0a1a6d87b006
ph2013-10-26_mk41_1644_d1t04.flac:d9a8f3801c389672709f6bf579bb8e39
ph2013-10-26_mk41_1644_d1t05.flac:2a1b16250c4c01a587e1e0478d534ded
ph2013-10-26_mk41_1644_d1t06.flac:5b142756c4e48ca035c53a3cf1d70ec4
ph2013-10-26_mk41_1644_d1t07.flac:7aa282ebd798d30b58d1abe159c43f31
ph2013-10-26_mk41_1644_d1t08.flac:800c6231f8ddb12bd4198185e1ce155a
ph2013-10-26_mk41_1644_d1t09.flac:eb95ee8ad9ca87b9c54c71feee90c667
ph2013-10-26_mk41_1644_d1t10.flac:b6d41e5f40cfa2678d20c08a1c9f27d7
ph2013-10-26_mk41_1644_d1t11.flac:a006c3f37f26ebe0a6a1e8784e70cd44
ph2013-10-26_mk41_1644_d2t01.flac:e378659eb3f813e1e7fd73d24c29efaa
ph2013-10-26_mk41_1644_d2t02.flac:2cb4e30f8b2f725fdb11fb1fc5599d7f
ph2013-10-26_mk41_1644_d2t03.flac:24fb2be6c707d0b6b69ef3984e10c940
ph2013-10-26_mk41_1644_d2t04.flac:7bebde4ee7e34ead21252d170d84a958
ph2013-10-26_mk41_1644_d2t05.flac:052275dcf50ce13d3c8d5bab78049e69
ph2013-10-26_mk41_1644_d2t06.flac:27c16fb0b3cfa96b114d00a3cbcba452
ph2013-10-26_mk41_1644_d2t07.flac:cbddba0bc01e359df7558bc7e64e7940
ph2013-10-26_mk41_1644_d2t08.flac:d133144e5a537f0c26ce6430c3aea9c6
ph2013-10-26_mk41_1644_d2t09.flac:a80d4442fb344172af097af83ca90795
ph2013-10-26_mk41_1644_d2t10.flac:ee2359d116123eebf182c4fee018afbd
ph2013-10-26_mk41_1644_d2t11.flac:c47be1904149d816d640cda40ee32a39

    length     expanded size    cdr  WAVE problems  fmt   ratio  filename
     1:15.59       13368812 B   ---   --   -----    wav  1.0000  ph2013-10-26_mk41_1644_d1t01.wav
     7:59.01       84497996 B   ---   --   -----    wav  1.0000  ph2013-10-26_mk41_1644_d1t02.wav
     8:09.15       86294924 B   ---   --   -----    wav  1.0000  ph2013-10-26_mk41_1644_d1t03.wav
     8:54.32       94272908 B   ---   --   -----    wav  1.0000  ph2013-10-26_mk41_1644_d1t04.wav
     5:31.33       58466060 B   ---   --   -----    wav  1.0000  ph2013-10-26_mk41_1644_d1t05.wav
    12:21.22      130764188 B   ---   --   -----    wav  1.0000  ph2013-10-26_mk41_1644_d1t06.wav
     5:06.36       54063116 B   ---   --   -----    wav  1.0000  ph2013-10-26_mk41_1644_d1t07.wav
    11:45.14      124394972 B   ---   --   -----    wav  1.0000  ph2013-10-26_mk41_1644_d1t08.wav
     7:04.74       74967692 B   ---   --   -----    wav  1.0000  ph2013-10-26_mk41_1644_d1t09.wav
    11:39.38      123393020 B   ---   --   -----    wav  1.0000  ph2013-10-26_mk41_1644_d1t10.wav
     7:22.19       78013532 B   ---   --   -----    wav  1.0000  ph2013-10-26_mk41_1644_d1t11.wav
     1:33.41       16501676 B   ---   --   -----    wav  1.0000  ph2013-10-26_mk41_1644_d2t01.wav
    18:51.19      199553132 B   ---   --   -----    wav  1.0000  ph2013-10-26_mk41_1644_d2t02.wav
    13:16.34      140494412 B   ---   --   -----    wav  1.0000  ph2013-10-26_mk41_1644_d2t03.wav
     9:12.41       97469276 B   ---   --   -----    wav  1.0000  ph2013-10-26_mk41_1644_d2t04.wav
     7:20.38       77705420 B   ---   --   -----    wav  1.0000  ph2013-10-26_mk41_1644_d2t05.wav
     6:28.01       68445596 B   ---   --   -----    wav  1.0000  ph2013-10-26_mk41_1644_d2t06.wav
     7:38.22       80842988 B   ---   --   -----    wav  1.0000  ph2013-10-26_mk41_1644_d2t07.wav
     8:41.14       91937372 B   ---   --   -----    wav  1.0000  ph2013-10-26_mk41_1644_d2t08.wav
     2:47.15       29494124 B   ---   --   -----    wav  1.0000  ph2013-10-26_mk41_1644_d2t09.wav
     6:13.66       65952476 B   ---   --   -----    wav  1.0000  ph2013-10-26_mk41_1644_d2t10.wav
     8:39.26       91612796 B   ---   --   -----    wav  1.0000  ph2013-10-26_mk41_1644_d2t11.wav
   177:51.60     1882506488 B                            1.0000  (22 files)



Show Checksums
16bit-FFP
ph2013-10-26_mk41_1644_d1t01.flac:c66ba07750236c28b1eba988556f9f46
ph2013-10-26_mk41_1644_d1t02.flac:c8e1591a28d30a6e3495228c9fd0a088
ph2013-10-26_mk41_1644_d1t03.flac:d1e1bbb3ab2b0957c00f0a1a6d87b006
ph2013-10-26_mk41_1644_d1t04.flac:d9a8f3801c389672709f6bf579bb8e39
ph2013-10-26_mk41_1644_d1t05.flac:2a1b16250c4c01a587e1e0478d534ded
ph2013-10-26_mk41_1644_d1t06.flac:5b142756c4e48ca035c53a3cf1d70ec4
ph2013-10-26_mk41_1644_d1t07.flac:7aa282ebd798d30b58d1abe159c43f31
ph2013-10-26_mk41_1644_d1t08.flac:800c6231f8ddb12bd4198185e1ce155a
ph2013-10-26_mk41_1644_d1t09.flac:eb95ee8ad9ca87b9c54c71feee90c667
ph2013-10-26_mk41_1644_d1t10.flac:b6d41e5f40cfa2678d20c08a1c9f27d7
ph2013-10-26_mk41_1644_d1t11.flac:a006c3f37f26ebe0a6a1e8784e70cd44
ph2013-10-26_mk41_1644_d2t01.flac:e378659eb3f813e1e7fd73d24c29efaa
ph2013-10-26_mk41_1644_d2t02.flac:2cb4e30f8b2f725fdb11fb1fc5599d7f
ph2013-10-26_mk41_1644_d2t03.flac:24fb2be6c707d0b6b69ef3984e10c940
ph2013-10-26_mk41_1644_d2t04.flac:7bebde4ee7e34ead21252d170d84a958
ph2013-10-26_mk41_1644_d2t05.flac:052275dcf50ce13d3c8d5bab78049e69
ph2013-10-26_mk41_1644_d2t06.flac:27c16fb0b3cfa96b114d00a3cbcba452
ph2013-10-26_mk41_1644_d2t07.flac:cbddba0bc01e359df7558bc7e64e7940
ph2013-10-26_mk41_1644_d2t08.flac:d133144e5a537f0c26ce6430c3aea9c6
ph2013-10-26_mk41_1644_d2t09.flac:a80d4442fb344172af097af83ca90795
ph2013-10-26_mk41_1644_d2t10.flac:ee2359d116123eebf182c4fee018afbd
ph2013-10-26_mk41_1644_d2t11.flac:c47be1904149d816d640cda40ee32a39

Comments
Add Comment
Other Sources (comments)
flac16; Schoeps... (0) flac16; AKG ck8x >... (0) flac24; Schoeps MK41... (0) flac16; DPA 4011 >... (0) flac24; DPA 4011 >... (0) flac16; AKG C414xls... (0) flac16; Busman... (0) flac16; Schoeps... (0) flac16; Schoeps MK4V... (0) flac24; Schoeps MK4V... (0) flac16; Microtech... (0) flac24; Schoeps... (0)
Date User Comment