Browse Collections Artists Sources   Search Dates

Add Show    List Management    Help


Phish 10/27/13
XL Center, Hartford, CT
Comments Add Comment    Source Collectors    Add to Collection    Add to Want List    History
Source # 125995 Other Sources
Entered by Jason Sobel
Checksums 24bit-FFP
Disc Counts 0 / 0
Media Size Compressed: 3.13 GB (3358325611 bytes)
Date Circulated
Date Added
10/28/2013
10/28/2013
Source Summary flac24; DPA 4011 > Lunatec V3 (Analog) > Tascam DR-680 (24/96); SDHC Card > Sound Forge Pro 10.0 (fades, Normalize) > CD Wave > TLH > Flac (level 8); Taped & Transferred by Brian V. 
Source Information - Download Text | Download Zip
Phish
2013-10-27
XL Center
Hartford, CT

DPA 4011 > V3 (Analog) > DR680 (24/96)
SDHC Card > Sound Forge Pro 10.0 (fades, Normalize) > CD Wav (tracking) > TLH > Flac (level 8)
OTS/DFC/DIN/7 1/2' high
Tags added in Foobar2000

Taped and Transferred by Brian V

Set 1

01. Rock & Roll
02. Ocelot
03. Tube
04. Halfway To The Moon
05. Fee
06. Maze
07. Lawn Boy
08. Nellie Kane
09. NICU
10. A Song I Heard The Ocean Sing
11. Walls Of The Cave

Set 2

01. Chalk Dust Torture
02. Tweezer >
03. Birds Of Feather
04. Golden Age
05. Halleys Comet >
06. 2001
07. Fluffhead
08. Slave To The Traffic Light
09. encore break
10. Loving Cup>
11. Tweezer Reprise

***Support Bands That Allow Taping/Trading***

flac fingerprints ph2013-10-27s1t01.flac:b8bd985640f4b285c326f8b8d1e69c55
ph2013-10-27s1t02.flac:9be875973f53c3f9463dfda4af3b343b
ph2013-10-27s1t03.flac:246a36cc05e0a9b967b114cf5298c620
ph2013-10-27s1t04.flac:35d9bdfc4de56d3fe6d3a5c402d24545
ph2013-10-27s1t05.flac:9357c98fe1c42404b2a3cf2410cb21a7
ph2013-10-27s1t06.flac:6c70f2c3853507af270cc8a33122b995
ph2013-10-27s1t07.flac:8592f15c4d078d4126153003dd7dc058
ph2013-10-27s1t08.flac:0229621979802740ca3d4b0993e66673
ph2013-10-27s1t09.flac:0f6a3dcbb31e39aec17b32fe593b27d6
ph2013-10-27s1t10.flac:12f6dc074b7953a30913715a9fc35004
ph2013-10-27s1t11.flac:b635d960d4ca20acf414b7114279aed2
ph2013-10-27s2t01.flac:72fa7e861d70eae08d41b198014f2bb4
ph2013-10-27s2t02.flac:8ff2a70f8b2ce13afff6443b35d1f85f
ph2013-10-27s2t03.flac:f865e81268685f453d26e59b619653c0
ph2013-10-27s2t04.flac:05da34a2ded3534b39a825f8b86d96ec
ph2013-10-27s2t05.flac:2e322deded3c8cf049670be469a6d7d3
ph2013-10-27s2t06.flac:c6281c79abbd267e3239fdc7b7180c8b
ph2013-10-27s2t07.flac:e0ed4524107545b4b2776b5a3bbe51e2
ph2013-10-27s2t08.flac:4cda14c012da463391ed79b20fabbf56
ph2013-10-27s2t09.flac:ec767027aa3fa01f5fef0cafb301ec88
ph2013-10-27s2t10.flac:b89d06faf7fc33f49ec9381a61065fca
ph2013-10-27s2t11.flac:ad6ebd6aad03a0bfec3fe95310cc2ef4

shntool output
    length     expanded size    cdr  WAVE problems  fmt   ratio  filename
    11:17.053     389982764 B   cxx   --   ---xx   flac  0.5643  ph2013-10-27s1t01.flac
     8:31.640     294704684 B   cxx   --   ---xx   flac  0.5460  ph2013-10-27s1t02.flac
     4:18.520     148907564 B   cxx   --   ---xx   flac  0.5507  ph2013-10-27s1t03.flac
     6:53.213     238010924 B   cxx   --   ---xx   flac  0.5503  ph2013-10-27s1t04.flac
     6:49.867     236083244 B   cxx   --   ---xx   flac  0.5329  ph2013-10-27s1t05.flac
     9:58.747     344878124 B   cxx   --   ---xx   flac  0.5582  ph2013-10-27s1t06.flac
     3:40.347     126919724 B   cxx   --   ---xx   flac  0.5259  ph2013-10-27s1t07.flac
     2:55.933     101337644 B   cxx   --   ---xx   flac  0.5484  ph2013-10-27s1t08.flac
     5:17.053     182622764 B   cxx   --   ---xx   flac  0.5452  ph2013-10-27s1t09.flac
     6:20.320     219064364 B   cxx   --   ---xx   flac  0.5647  ph2013-10-27s1t10.flac
    11:22.725     393249836 B   cxx   --   ---xx   flac  0.5518  ph2013-10-27s1t11.flac
     6:42.200     231667244 B   cxx   --   ---xx   flac  0.5530  ph2013-10-27s2t01.flac
    17:31.373     605591084 B   cxx   --   ---xx   flac  0.5424  ph2013-10-27s2t02.flac
     6:41.653     231352364 B   cxx   --   ---xx   flac  0.5571  ph2013-10-27s2t03.flac
    16:45.560     579202604 B   cxx   --   ---xx   flac  0.5371  ph2013-10-27s2t04.flac
     6:08.427     212213804 B   cxx   --   ---xx   flac  0.5460  ph2013-10-27s2t05.flac
     8:06.333     280128044 B   cxx   --   ---xx   flac  0.5433  ph2013-10-27s2t06.flac
    13:58.480     482964524 B   cxx   --   ---xx   flac  0.5467  ph2013-10-27s2t07.flac
    10:24.587     359761964 B   cxx   --   ---xx   flac  0.5380  ph2013-10-27s2t08.flac
     3:41.280     127457324 B   cxx   --   ---xx   flac  0.5244  ph2013-10-27s2t09.flac
     6:10.187     213227564 B   cxx   --   ---xx   flac  0.5634  ph2013-10-27s2t10.flac
     3:45.227     129730604 B   cxx   --   ---xx   flac  0.5730  ph2013-10-27s2t11.flac
   177:20.725    6129058760 B                            0.5479  (22 files)

Show Checksums
24bit-FFP
ph2013-10-27s1t01.flac:b8bd985640f4b285c326f8b8d1e69c55
ph2013-10-27s1t02.flac:9be875973f53c3f9463dfda4af3b343b
ph2013-10-27s1t03.flac:246a36cc05e0a9b967b114cf5298c620
ph2013-10-27s1t04.flac:35d9bdfc4de56d3fe6d3a5c402d24545
ph2013-10-27s1t05.flac:9357c98fe1c42404b2a3cf2410cb21a7
ph2013-10-27s1t06.flac:6c70f2c3853507af270cc8a33122b995
ph2013-10-27s1t07.flac:8592f15c4d078d4126153003dd7dc058
ph2013-10-27s1t08.flac:0229621979802740ca3d4b0993e66673
ph2013-10-27s1t09.flac:0f6a3dcbb31e39aec17b32fe593b27d6
ph2013-10-27s1t10.flac:12f6dc074b7953a30913715a9fc35004
ph2013-10-27s1t11.flac:b635d960d4ca20acf414b7114279aed2
ph2013-10-27s2t01.flac:72fa7e861d70eae08d41b198014f2bb4
ph2013-10-27s2t02.flac:8ff2a70f8b2ce13afff6443b35d1f85f
ph2013-10-27s2t03.flac:f865e81268685f453d26e59b619653c0
ph2013-10-27s2t04.flac:05da34a2ded3534b39a825f8b86d96ec
ph2013-10-27s2t05.flac:2e322deded3c8cf049670be469a6d7d3
ph2013-10-27s2t06.flac:c6281c79abbd267e3239fdc7b7180c8b
ph2013-10-27s2t07.flac:e0ed4524107545b4b2776b5a3bbe51e2
ph2013-10-27s2t08.flac:4cda14c012da463391ed79b20fabbf56
ph2013-10-27s2t09.flac:ec767027aa3fa01f5fef0cafb301ec88
ph2013-10-27s2t10.flac:b89d06faf7fc33f49ec9381a61065fca
ph2013-10-27s2t11.flac:ad6ebd6aad03a0bfec3fe95310cc2ef4

Comments
Add Comment
Other Sources (comments)
flac16; Schoeps... (0) flac16; Schoeps mk22... (0) flac24; Schoeps mk22... (0) flac16; DPA 4011 >... (0) flac24; Schoeps MK41... (0) flac16; Schoeps MK41... (0) flac16; Telefunken... (1) flac16; Schoeps MK4V... (0) flac24; Schoeps MK4V... (0) flac16; Schoeps... (0) flac16; AKG C414xls... (0) flac24; Schoeps... (0)
Date User Comment