Browse Collections Artists Sources   Search Dates

Add Show    List Management    Help


Phish 10/27/13
XL Center, Hartford, CT
Comments Add Comment    Source Collectors    Add to Collection    Add to Want List    History
Source # 125996 Other Sources
Entered by Jason Sobel
Checksums 16bit-FFP
Disc Counts 0 / 0
Media Size Compressed: 970.05 MB (1017173143 bytes)
Date Circulated
Date Added
10/28/2013
10/28/2013
Source Summary flac16; DPA 4011 > Lunatec V3 (Analog) > Tascam DR-680 (24/96); SDHC Card > Sound Forge Pro 10.0 (fades, Normalize) > CD Wave > TLH > Flac (level 8); Taped & Transferred by Brian V. 
Source Information - Download Text | Download Zip
Phish
2013-10-27
XL Center
Hartford, CT

DPA 4011 > V3 (Analog) > DR680 (24/96)
SDHC Card > Sound Forge Pro 10.0 (fades, Normalize) > CD Wav (tracking) > TLH > Flac (level 8)
OTS/DFC/DIN/7 1/2' high
Tags added in Foobar2000

Taped and Transferred by Brian V

Set 1

01. Rock & Roll
02. Ocelot
03. Tube
04. Halfway To The Moon
05. Fee
06. Maze
07. Lawn Boy
08. Nellie Kane
09. NICU
10. A Song I Heard The Ocean Sing
11. Walls Of The Cave

Set 2

01. Chalk Dust Torture
02. Tweezer >
03. Birds Of Feather
04. Golden Age
05. Halleys Comet >
06. 2001
07. Fluffhead
08. Slave To The Traffic Light
09. encore break
10. Loving Cup>
11. Tweezer Reprise

***Support Bands That Allow Taping/Trading***

flac fingerprints
ph2013-10-27s1t01.flac:6fa8c21cd6c0ddcec32debb324b9a370
ph2013-10-27s1t02.flac:fdfe6f2fdd78b1cec839cbd5d36b6222
ph2013-10-27s1t03.flac:a0c3a8887b914f10b0a67e0e36973ed8
ph2013-10-27s1t04.flac:1dbc23594a736841aa66e05d35d3555a
ph2013-10-27s1t05.flac:d6a1b9b0cb4cad9d81798618c11fecca
ph2013-10-27s1t06.flac:b122cb180b539a64ae05de5bb4ead803
ph2013-10-27s1t07.flac:9bad2a396b74d86884c0cfb0a82cee9a
ph2013-10-27s1t08.flac:81f858cefecf33789fb69e558a8a6276
ph2013-10-27s1t09.flac:11e25de845f21210a7e85c9f3c875a77
ph2013-10-27s1t10.flac:6629deb1028fb29218e0d8356379166f
ph2013-10-27s1t11.flac:c34daf5b7aaafc9e48905448917e6948
ph2013-10-27s2t01.flac:0a19dec9b9b90b222adce13a7ebbd3db
ph2013-10-27s2t02.flac:3f8a7e068e429b718458a75594c2a520
ph2013-10-27s2t03.flac:693ee70c18e52703d4bffd994edb0513
ph2013-10-27s2t04.flac:a0ac269314e7f57e5bcae99e9866c750
ph2013-10-27s2t05.flac:3c5db8f9501d8c404b2ebc328caa4eb8
ph2013-10-27s2t06.flac:e90de8d01264ac7996a874bc6fdb8561
ph2013-10-27s2t07.flac:306b43ac67a2f6fd020ea0ed8f7524cf
ph2013-10-27s2t08.flac:7afbd8571cb9248c9a8cdbe8fedf3b03
ph2013-10-27s2t09.flac:9b72f58ce7b7c02f5fd2ec9efad330cf
ph2013-10-27s2t10.flac:91299ba6b67d11a33fc9859c0a2bb97d
ph2013-10-27s2t11.flac:77131ef87a3d33a3fdcc3a68bc52f010

shntool output
    length     expanded size    cdr  WAVE problems  fmt   ratio  filename
    11:17.04      119432252 B   ---   --   ---xx   flac  0.5663  ph2013-10-27s1t01.flac
     8:31.48       90253340 B   ---   --   ---xx   flac  0.5343  ph2013-10-27s1t02.flac
     4:18.39       45602972 B   ---   --   ---xx   flac  0.5457  ph2013-10-27s1t03.flac
     6:53.16       72890876 B   ---   --   ---xx   flac  0.5430  ph2013-10-27s1t04.flac
     6:49.65       72300524 B   ---   --   ---xx   flac  0.5094  ph2013-10-27s1t05.flac
     9:58.56      105618956 B   ---   --   ---xx   flac  0.5562  ph2013-10-27s1t06.flac
     3:40.26       38869196 B   ---   --   ---xx   flac  0.4934  ph2013-10-27s1t07.flac
     2:55.70       31034684 B   ---   --   ---xx   flac  0.5412  ph2013-10-27s1t08.flac
     5:17.04       55928252 B   ---   --   ---xx   flac  0.5367  ph2013-10-27s1t09.flac
     6:20.24       67088492 B   ---   --   ---xx   flac  0.5715  ph2013-10-27s1t10.flac
    11:22.55      120434204 B   ---   --   ---xx   flac  0.5466  ph2013-10-27s1t11.flac
     6:42.15       70948124 B   ---   --   ---xx   flac  0.5554  ph2013-10-27s2t01.flac
    17:31.28      185462300 B   ---   --   ---xx   flac  0.5352  ph2013-10-27s2t02.flac
     6:41.49       70851692 B   ---   --   ---xx   flac  0.5615  ph2013-10-27s2t03.flac
    16:45.42      177380828 B   ---   --   ---xx   flac  0.5250  ph2013-10-27s2t04.flac
     6:08.32       64990508 B   ---   --   ---xx   flac  0.5454  ph2013-10-27s2t05.flac
     8:06.25       85789244 B   ---   --   ---xx   flac  0.5371  ph2013-10-27s2t06.flac
    13:58.36      147907916 B   ---   --   ---xx   flac  0.5429  ph2013-10-27s2t07.flac
    10:24.44      110177132 B   ---   --   ---xx   flac  0.5254  ph2013-10-27s2t08.flac
     3:41.21       39033836 B   ---   --   ---xx   flac  0.4919  ph2013-10-27s2t09.flac
     6:10.14       65300972 B   ---   --   ---xx   flac  0.5728  ph2013-10-27s2t10.flac
     3:45.17       39730028 B   ---   --   ---xx   flac  0.5842  ph2013-10-27s2t11.flac
   177:20.55     1877026328 B                            0.5419  (22 files)
Show Checksums
16bit-FFP
ph2013-10-27s1t01.flac:6fa8c21cd6c0ddcec32debb324b9a370
ph2013-10-27s1t02.flac:fdfe6f2fdd78b1cec839cbd5d36b6222
ph2013-10-27s1t03.flac:a0c3a8887b914f10b0a67e0e36973ed8
ph2013-10-27s1t04.flac:1dbc23594a736841aa66e05d35d3555a
ph2013-10-27s1t05.flac:d6a1b9b0cb4cad9d81798618c11fecca
ph2013-10-27s1t06.flac:b122cb180b539a64ae05de5bb4ead803
ph2013-10-27s1t07.flac:9bad2a396b74d86884c0cfb0a82cee9a
ph2013-10-27s1t08.flac:81f858cefecf33789fb69e558a8a6276
ph2013-10-27s1t09.flac:11e25de845f21210a7e85c9f3c875a77
ph2013-10-27s1t10.flac:6629deb1028fb29218e0d8356379166f
ph2013-10-27s1t11.flac:c34daf5b7aaafc9e48905448917e6948
ph2013-10-27s2t01.flac:0a19dec9b9b90b222adce13a7ebbd3db
ph2013-10-27s2t02.flac:3f8a7e068e429b718458a75594c2a520
ph2013-10-27s2t03.flac:693ee70c18e52703d4bffd994edb0513
ph2013-10-27s2t04.flac:a0ac269314e7f57e5bcae99e9866c750
ph2013-10-27s2t05.flac:3c5db8f9501d8c404b2ebc328caa4eb8
ph2013-10-27s2t06.flac:e90de8d01264ac7996a874bc6fdb8561
ph2013-10-27s2t07.flac:306b43ac67a2f6fd020ea0ed8f7524cf
ph2013-10-27s2t08.flac:7afbd8571cb9248c9a8cdbe8fedf3b03
ph2013-10-27s2t09.flac:9b72f58ce7b7c02f5fd2ec9efad330cf
ph2013-10-27s2t10.flac:91299ba6b67d11a33fc9859c0a2bb97d
ph2013-10-27s2t11.flac:77131ef87a3d33a3fdcc3a68bc52f010

Comments
Add Comment
Other Sources (comments)
flac16; Schoeps... (0) flac16; Schoeps mk22... (0) flac24; Schoeps mk22... (0) flac24; DPA 4011 >... (0) flac24; Schoeps MK41... (0) flac16; Schoeps MK41... (0) flac16; Telefunken... (1) flac16; Schoeps MK4V... (0) flac24; Schoeps MK4V... (0) flac16; Schoeps... (0) flac16; AKG C414xls... (0) flac24; Schoeps... (0)
Date User Comment