Browse Collections Artists Sources   Search Dates

Add Show    List Management    Help


Phish 10/27/13
XL Center, Hartford, CT
Comments Add Comment    Source Collectors    Add to Collection    Add to Want List    History
Source # 125999 Other Sources
Entered by Jason Sobel
Checksums 16bit-FFP
Disc Counts 0 / 0
Media Size Compressed: 933.1 MB (978421844 bytes)
Date Circulated
Date Added
10/28/2013
10/28/2013
Source Summary flac16; Schoeps MK41 > KC5 > CMC6 > Sonosax SX-R4 (24bit/96khz); WAV > USB > Macbook Pro > Wave Editor (tracking, fades, resample/dither to 16 bit/44.1k) > XAct > FLAC (Level 8); Taped & Transferred by Andy Murray 
Source Information - Download Text | Download Zip
Phish
2013-10-27
XL Center
Hartford, CT

Source:
Schoeps MK41>KC5>CMC6>Sonosax SX-R4 (24bit/96khz)
mics were DIN

Lineage:
WAV>USB>Macbook Pro>Wave Editor(tracking,fades,resample(izotope)/dither(mbit+)to 16 bit/44.1k)>XAct(FLAC 8,ffp,fix sbe)

Taped by: Andy Murray
Transferred by: Andy Murray

2 Sets

Set 1:

01 crowd
02 Rock and Roll
03 Ocelot
04 Tube
05 Halfway to the Moon
06 Fee[1] >
07 Maze
08 Lawn Boy
09 Nellie Kane
10 NICU
11 A Song I Heard the Ocean Sing
12 Walls of the Cave

Set 2:

01 crowd
02 Chalk Dust Torture >
03 Tweezer >
04 Birds of a Feather
05 Golden Age >
06 Halley's Comet >
07 Also Sprach Zarathustra >
08 Fluffhead >
09 Slave to the Traffic Light

Encore:
10 encore break
11 Loving Cup >
12 Tweezer Reprise

[1] Trey sang verses through megaphone.

;flac fingerprints generated by xACT 2.24 on 2013-10-28 18:31:16 -0400

ph2013-10-27_mk41_1644_d1t01.flac:616ac64695f33dc9dde11790fde41875
ph2013-10-27_mk41_1644_d1t02.flac:5d40f1b944c877ffa29c3838b9f86d71
ph2013-10-27_mk41_1644_d1t03.flac:c0975a2c19ec82bb3f7967f4b0f045c7
ph2013-10-27_mk41_1644_d1t04.flac:92a584234ca61945c0fbc5d4c8f1cb88
ph2013-10-27_mk41_1644_d1t05.flac:1821f033529c333a30832755be72dbdb
ph2013-10-27_mk41_1644_d1t06.flac:eb42f6da85c5525885d27a324a2123cb
ph2013-10-27_mk41_1644_d1t07.flac:cd8a5bee3ce489ff67ebbec836ecb591
ph2013-10-27_mk41_1644_d1t08.flac:b3b5d60d8dac14f32349f92be5b6eb23
ph2013-10-27_mk41_1644_d1t09.flac:673215241520942ad3376d8551b97658
ph2013-10-27_mk41_1644_d1t10.flac:6f0a4a98e21349b78f942e00e83b6d43
ph2013-10-27_mk41_1644_d1t11.flac:dca0617a6e76718810727f3000041fdd
ph2013-10-27_mk41_1644_d1t12.flac:5c2963ff04c75a1206710c7a04f33ba0
ph2013-10-27_mk41_1644_d2t01.flac:75d9d7ec04126b4b7474536ee56f8c8f
ph2013-10-27_mk41_1644_d2t02.flac:31c3d4e3fef81c71f90df737045a4853
ph2013-10-27_mk41_1644_d2t03.flac:4f93f44084e00e40ac165a775687f92d
ph2013-10-27_mk41_1644_d2t04.flac:6088cc2a11fa8e977e60511b0b9a203f
ph2013-10-27_mk41_1644_d2t05.flac:c8465570ad4603859544dd260cbfb1bb
ph2013-10-27_mk41_1644_d2t06.flac:d2981950a1dab3b0b4c43a2b3bd55df1
ph2013-10-27_mk41_1644_d2t07.flac:bf8342c0907bbee341b0b5d41fba1507
ph2013-10-27_mk41_1644_d2t08.flac:21b39e4324f38d00032b881362f80459
ph2013-10-27_mk41_1644_d2t09.flac:1b7e1c26ba4d22e51b72a0f50f87ed56
ph2013-10-27_mk41_1644_d2t10.flac:25d58c3f6984912985240ca15792844b
ph2013-10-27_mk41_1644_d2t11.flac:72cc8380f59b18d456a611bbc1bbdf09
ph2013-10-27_mk41_1644_d2t12.flac:4a151e51a8572ead2ffefdec775d574c

    length     expanded size    cdr  WAVE problems  fmt   ratio  filename
     0:52.09        9194012 B   ---   --   -----    wav  1.0000  ph2013-10-27_mk41_1644_d1t01.wav
    11:11.49      118479692 B   ---   --   -----    wav  1.0000  ph2013-10-27_mk41_1644_d1t02.wav
     8:32.10       90340364 B   ---   --   -----    wav  1.0000  ph2013-10-27_mk41_1644_d1t03.wav
     4:17.35       45417164 B   ---   --   -----    wav  1.0000  ph2013-10-27_mk41_1644_d1t04.wav
     6:52.37       72763868 B   ---   --   -----    wav  1.0000  ph2013-10-27_mk41_1644_d1t05.wav
     6:51.63       72648620 B   ---   --   -----    wav  1.0000  ph2013-10-27_mk41_1644_d1t06.wav
     9:57.72      105480188 B   ---   --   -----    wav  1.0000  ph2013-10-27_mk41_1644_d1t07.wav
     3:34.40       37843724 B   ---   --   -----    wav  1.0000  ph2013-10-27_mk41_1644_d1t08.wav
     3:02.46       32213036 B   ---   --   -----    wav  1.0000  ph2013-10-27_mk41_1644_d1t09.wav
     5:16.61       55885916 B   ---   --   -----    wav  1.0000  ph2013-10-27_mk41_1644_d1t10.wav
     6:20.37       67119068 B   ---   --   -----    wav  1.0000  ph2013-10-27_mk41_1644_d1t11.wav
    11:59.04      126841052 B   ---   --   -----    wav  1.0000  ph2013-10-27_mk41_1644_d1t12.wav
     0:39.16        6917276 B   ---   --   -----    wav  1.0000  ph2013-10-27_mk41_1644_d2t01.wav
     6:39.22       70435388 B   ---   --   -----    wav  1.0000  ph2013-10-27_mk41_1644_d2t02.wav
    17:31.25      185455244 B   ---   --   -----    wav  1.0000  ph2013-10-27_mk41_1644_d2t03.wav
     6:40.59       70698812 B   ---   --   -----    wav  1.0000  ph2013-10-27_mk41_1644_d2t04.wav
    16:44.54      177232652 B   ---   --   -----    wav  1.0000  ph2013-10-27_mk41_1644_d2t05.wav
     6:10.19       65312732 B   ---   --   -----    wav  1.0000  ph2013-10-27_mk41_1644_d2t06.wav
     8:05.07       85570508 B   ---   --   -----    wav  1.0000  ph2013-10-27_mk41_1644_d2t07.wav
    13:59.02      148004348 B   ---   --   -----    wav  1.0000  ph2013-10-27_mk41_1644_d2t08.wav
    10:23.66      110052476 B   ---   --   -----    wav  1.0000  ph2013-10-27_mk41_1644_d2t09.wav
     3:42.01       39163196 B   ---   --   -----    wav  1.0000  ph2013-10-27_mk41_1644_d2t10.wav
     6:10.58       65404460 B   ---   --   -----    wav  1.0000  ph2013-10-27_mk41_1644_d2t11.wav
     3:39.64       38782172 B   ---   --   -----    wav  1.0000  ph2013-10-27_mk41_1644_d2t12.wav
   179:15.31     1897255968 B                            1.0000  (24 files)



Show Checksums
16bit-FFP
ph2013-10-27_mk41_1644_d1t01.flac:616ac64695f33dc9dde11790fde41875
ph2013-10-27_mk41_1644_d1t02.flac:5d40f1b944c877ffa29c3838b9f86d71
ph2013-10-27_mk41_1644_d1t03.flac:c0975a2c19ec82bb3f7967f4b0f045c7
ph2013-10-27_mk41_1644_d1t04.flac:92a584234ca61945c0fbc5d4c8f1cb88
ph2013-10-27_mk41_1644_d1t05.flac:1821f033529c333a30832755be72dbdb
ph2013-10-27_mk41_1644_d1t06.flac:eb42f6da85c5525885d27a324a2123cb
ph2013-10-27_mk41_1644_d1t07.flac:cd8a5bee3ce489ff67ebbec836ecb591
ph2013-10-27_mk41_1644_d1t08.flac:b3b5d60d8dac14f32349f92be5b6eb23
ph2013-10-27_mk41_1644_d1t09.flac:673215241520942ad3376d8551b97658
ph2013-10-27_mk41_1644_d1t10.flac:6f0a4a98e21349b78f942e00e83b6d43
ph2013-10-27_mk41_1644_d1t11.flac:dca0617a6e76718810727f3000041fdd
ph2013-10-27_mk41_1644_d1t12.flac:5c2963ff04c75a1206710c7a04f33ba0
ph2013-10-27_mk41_1644_d2t01.flac:75d9d7ec04126b4b7474536ee56f8c8f
ph2013-10-27_mk41_1644_d2t02.flac:31c3d4e3fef81c71f90df737045a4853
ph2013-10-27_mk41_1644_d2t03.flac:4f93f44084e00e40ac165a775687f92d
ph2013-10-27_mk41_1644_d2t04.flac:6088cc2a11fa8e977e60511b0b9a203f
ph2013-10-27_mk41_1644_d2t05.flac:c8465570ad4603859544dd260cbfb1bb
ph2013-10-27_mk41_1644_d2t06.flac:d2981950a1dab3b0b4c43a2b3bd55df1
ph2013-10-27_mk41_1644_d2t07.flac:bf8342c0907bbee341b0b5d41fba1507
ph2013-10-27_mk41_1644_d2t08.flac:21b39e4324f38d00032b881362f80459
ph2013-10-27_mk41_1644_d2t09.flac:1b7e1c26ba4d22e51b72a0f50f87ed56
ph2013-10-27_mk41_1644_d2t10.flac:25d58c3f6984912985240ca15792844b
ph2013-10-27_mk41_1644_d2t11.flac:72cc8380f59b18d456a611bbc1bbdf09
ph2013-10-27_mk41_1644_d2t12.flac:4a151e51a8572ead2ffefdec775d574c

Comments
Add Comment
Other Sources (comments)
flac16; Schoeps... (0) flac16; Schoeps mk22... (0) flac24; Schoeps mk22... (0) flac24; DPA 4011 >... (0) flac16; DPA 4011 >... (0) flac24; Schoeps MK41... (0) flac16; Telefunken... (1) flac16; Schoeps MK4V... (0) flac24; Schoeps MK4V... (0) flac16; Schoeps... (0) flac16; AKG C414xls... (0) flac24; Schoeps... (0)
Date User Comment