Browse Collections Artists Sources   Search Dates

Add Show    List Management    Help


Phish 10/26/13
DCU Center, Worcester, MA
Comments Add Comment    Source Collectors    Add to Collection    Add to Want List    History
Source # 126001 Other Sources
Entered by Jason Sobel
Checksums 16bit-FFP
Disc Counts 0 / 0
Media Size Compressed: 959.78 MB (1006401024 bytes)
Date Circulated
Date Added
10/28/2013
10/28/2013
Source Summary flac16; DPA 4011 > Lunatec V3 (Analog) > Tascam DR-680 (24/96); SDHC Card > Sound Forge Pro 10.0 (fades, Normalize, resample, dither) > CD Wave > TLH > Flac (level 8); Taped & Transferred by Brian V. 
Source Information - Download Text | Download Zip
Phish
2013-10-26
DCU Center
Worcester, MA

DPA 4011 > V3 (Analog) > DR680 (24/96)
SDHC Card > Sound Forge Pro 10.0 (fades, Normalize, resample iZotope 64-Bit SRC, dither iZotope MBIT+ Dithe) > CD Wav (tracking) > TLH > Flac (level 8)
OTS/DFC/DIN/7 1/2' high
Tags added in Foobar2000

Taped and Transferred by Brian V

Set 1

01. Party Time
02. Punch You in the Eye >
03. Back On The Train
04. My Soul
05. Bathtub Gin
06. Ride Captain Ride
07. Stash
08. Simple >
09. David Bowie
10. Character Zero

Set 2

01. Drowned >
02. Light >
03. Sand >
04. Theme From The Bottom >
05. Mikes Song >
06. No Quarter >
07. Weekapaug Groove
08. encore break
09. Boogie On Reggae Woman$
10. Possum#

$ Kenwood Dennard replaced Fishman on drums midsong.
# Kenwood Dennard replaced Fishman on drums

***Support Bands That Allow Taping/Trading***

flac fingerprints
ph2013-10-26s1t01.flac:2c64d02d1fa8d19d2e5a15220eba3687
ph2013-10-26s1t02.flac:35a3f9476d638cc687726be6645d9cb6
ph2013-10-26s1t03.flac:08c6523645a687350fbf1869971b9e02
ph2013-10-26s1t04.flac:ea3949a909c95c46ffbeba6075ef27af
ph2013-10-26s1t05.flac:3a575728e3360646af865f85bdf7594f
ph2013-10-26s1t06.flac:275eafeba52d5fcbcc179f83661ee647
ph2013-10-26s1t07.flac:f8866b63a491d8e3682807757c6743b4
ph2013-10-26s1t08.flac:ec71dc96403ef07680612d616984db34
ph2013-10-26s1t09.flac:8c5fa42a6a86d3cceaf8445c0bf66765
ph2013-10-26s1t10.flac:c3a8ee5bb0a06a85cfd005df2d435233
ph2013-10-26s2t01.flac:e098681bef7d90dbe3a5b6a3f6af0c22
ph2013-10-26s2t02.flac:53f0f0b4517759970dc9ecc88f0c0807
ph2013-10-26s2t03.flac:5e47e3526a0c307c854820d75b20f70e
ph2013-10-26s2t04.flac:5f6d651ac18c3e0eca8ee46e73c3d4e6
ph2013-10-26s2t05.flac:2148096cc81bc019196d7e92daa2f7e4
ph2013-10-26s2t06.flac:574afefe17d0924d5d7044d5f752f066
ph2013-10-26s2t07.flac:2c3544598dd5bdfa028b888681fe6a46
ph2013-10-26s2t08.flac:aabb5c516052066caac295b64b89a101
ph2013-10-26s2t09.flac:5d6514688ce9c92654a5a68d5ab75ac7
ph2013-10-26s2t10.flac:df70eadab8754ada1bbd279e948ec743

shntool output
    length     expanded size    cdr  WAVE problems  fmt   ratio  filename
     8:14.42       87240428 B   ---   --   ---xx   flac  0.5394  ph2013-10-26s1t01.flac
     8:07.71       86073836 B   ---   --   ---xx   flac  0.5358  ph2013-10-26s1t02.flac
     8:54.16       94235276 B   ---   --   ---xx   flac  0.5367  ph2013-10-26s1t03.flac
     5:31.35       58470764 B   ---   --   ---xx   flac  0.5589  ph2013-10-26s1t04.flac
    12:22.44      130992332 B   ---   --   ---xx   flac  0.5445  ph2013-10-26s1t05.flac
     5:08.31       54404156 B   ---   --   ---xx   flac  0.5520  ph2013-10-26s1t06.flac
    11:41.48      123769340 B   ---   --   ---xx   flac  0.5234  ph2013-10-26s1t07.flac
     7:05.42       75068828 B   ---   --   ---xx   flac  0.5489  ph2013-10-26s1t08.flac
    11:38.56      123258956 B   ---   --   ---xx   flac  0.5383  ph2013-10-26s1t09.flac
     6:42.22       70964588 B   ---   --   ---xx   flac  0.5663  ph2013-10-26s1t10.flac
    19:31.65      206717324 B   ---   --   ---xx   flac  0.5437  ph2013-10-26s2t01.flac
    13:19.22      140995388 B   ---   --   ---xx   flac  0.5474  ph2013-10-26s2t02.flac
     9:09.57       96977708 B   ---   --   ---xx   flac  0.5590  ph2013-10-26s2t03.flac
     7:21.68       77952380 B   ---   --   ---xx   flac  0.5406  ph2013-10-26s2t04.flac
     6:25.52       68036348 B   ---   --   ---xx   flac  0.5507  ph2013-10-26s2t05.flac
     7:39.37       81054668 B   ---   --   ---xx   flac  0.5427  ph2013-10-26s2t06.flac
     8:49.53       93440300 B   ---   --   ---xx   flac  0.5585  ph2013-10-26s2t07.flac
     2:39.32       28122908 B   ---   --   ---xx   flac  0.4946  ph2013-10-26s2t08.flac
     6:12.64       65771372 B   ---   --   ---xx   flac  0.5492  ph2013-10-26s2t09.flac
     7:43.14       81706172 B   ---   --   ---xx   flac  0.5691  ph2013-10-26s2t10.flac
   174:20.46     1845253072 B                            0.5454  (20 files)
Show Checksums
16bit-FFP
ph2013-10-26s1t01.flac:2c64d02d1fa8d19d2e5a15220eba3687
ph2013-10-26s1t02.flac:35a3f9476d638cc687726be6645d9cb6
ph2013-10-26s1t03.flac:08c6523645a687350fbf1869971b9e02
ph2013-10-26s1t04.flac:ea3949a909c95c46ffbeba6075ef27af
ph2013-10-26s1t05.flac:3a575728e3360646af865f85bdf7594f
ph2013-10-26s1t06.flac:275eafeba52d5fcbcc179f83661ee647
ph2013-10-26s1t07.flac:f8866b63a491d8e3682807757c6743b4
ph2013-10-26s1t08.flac:ec71dc96403ef07680612d616984db34
ph2013-10-26s1t09.flac:8c5fa42a6a86d3cceaf8445c0bf66765
ph2013-10-26s1t10.flac:c3a8ee5bb0a06a85cfd005df2d435233
ph2013-10-26s2t01.flac:e098681bef7d90dbe3a5b6a3f6af0c22
ph2013-10-26s2t02.flac:53f0f0b4517759970dc9ecc88f0c0807
ph2013-10-26s2t03.flac:5e47e3526a0c307c854820d75b20f70e
ph2013-10-26s2t04.flac:5f6d651ac18c3e0eca8ee46e73c3d4e6
ph2013-10-26s2t05.flac:2148096cc81bc019196d7e92daa2f7e4
ph2013-10-26s2t06.flac:574afefe17d0924d5d7044d5f752f066
ph2013-10-26s2t07.flac:2c3544598dd5bdfa028b888681fe6a46
ph2013-10-26s2t08.flac:aabb5c516052066caac295b64b89a101
ph2013-10-26s2t09.flac:5d6514688ce9c92654a5a68d5ab75ac7
ph2013-10-26s2t10.flac:df70eadab8754ada1bbd279e948ec743

Comments
Add Comment
Other Sources (comments)
flac16; Schoeps... (0) flac16; AKG ck8x >... (0) flac24; Schoeps MK41... (0) flac16; Schoeps MK41... (0) flac24; DPA 4011 >... (0) flac16; AKG C414xls... (0) flac16; Busman... (0) flac16; Schoeps... (0) flac16; Schoeps MK4V... (0) flac24; Schoeps MK4V... (0) flac16; Microtech... (0) flac24; Schoeps... (0)
Date User Comment