Browse Collections Artists Sources   Search Dates

Add Show    List Management    Help


Phish 10/26/13
DCU Center, Worcester, MA
Comments Add Comment    Source Collectors    Add to Collection    Add to Want List    History
Source # 126002 Other Sources
Entered by Jason Sobel
Checksums 24bit-FFP
Disc Counts 0 / 0
Media Size Compressed: 3.1 GB (3332794986 bytes)
Date Circulated
Date Added
10/28/2013
10/28/2013
Source Summary flac24; DPA 4011 > Lunatec V3 (Analog) > Tascam DR-680 (24/96); SDHC Card > Sound Forge Pro 10.0 (fades, Normalize) > CD Wave > TLH > Flac (level 8); Taped & Transferred by Brian V. 
Source Information - Download Text | Download Zip
Phish
2013-10-26
DCU Center
Worcester, MA

DPA 4011 > V3 (Analog) > DR680 (24/96)
SDHC Card > Sound Forge Pro 10.0 (fades, Normalize) > CD Wav (tracking) > TLH > Flac (level 8)
OTS/DFC/DIN/7 1/2' high
Tags added in Foobar2000

Taped and Transferred by Brian V

Set 1

01. Party Time
02. Punch You in the Eye >
03. Back On The Train
04. My Soul
05. Bathtub Gin
06. Ride Captain Ride
07. Stash
08. Simple >
09. David Bowie
10. Character Zero

Set 2

01. Drowned >
02. Light >
03. Sand >
04. Theme From The Bottom >
05. Mikes Song >
06. No Quarter >
07. Weekapaug Groove
08. encore break
09. Boogie On Reggae Woman$
10. Possum#

$ Kenwood Dennard replaced Fishman on drums midsong.
# Kenwood Dennard replaced Fishman on drums

***Support Bands That Allow Taping/Trading***

flac fingerprints
ph2013-10-26s1t01.flac:f86870ff61399f419f8966a7f9fcad72
ph2013-10-26s1t02.flac:809751f8393c2b44727730c3fe6d7bf7
ph2013-10-26s1t03.flac:83b63c3034e4103761a17c696b71449a
ph2013-10-26s1t04.flac:c5944782bacee037a09537ff4bec3bfb
ph2013-10-26s1t05.flac:1128472593f9c1f29c834d3ba47bacb6
ph2013-10-26s1t06.flac:db4f05481ca191cf3396f4eaa871f915
ph2013-10-26s1t07.flac:6db097033ca9f4b08cbab5f1d15beeb3
ph2013-10-26s1t08.flac:b2437939b7f66c42cec8b33f80c912bc
ph2013-10-26s1t09.flac:7cbe4c9fc639f49d0794e590fbb72243
ph2013-10-26s1t10.flac:562639f77578382f3f374d988894888c
ph2013-10-26s2t01.flac:57572c2bc0e25a222b369d9775c57d68
ph2013-10-26s2t02.flac:910d5d69c9f682e84bbd61de8615ec12
ph2013-10-26s2t03.flac:aa14c8d6c5adee970cbd46076e81ae89
ph2013-10-26s2t04.flac:b8cb8dc64ca1034cf2bda47c854a00cd
ph2013-10-26s2t05.flac:b2101ffe2626b0f5f45853a934dea80e
ph2013-10-26s2t06.flac:c29cab405f4d8555eff9c2537ee924fa
ph2013-10-26s2t07.flac:32e30ebf93f22b4138ca7d1a1325d170
ph2013-10-26s2t08.flac:4df1e8ca8ca8101bc3fff45feb01ef2c
ph2013-10-26s2t09.flac:c5d97799bd3ebc79e976ad09eb930904
ph2013-10-26s2t10.flac:2cd68ea140eeebedf4870878e4056d27

shntool output
    length     expanded size    cdr  WAVE problems  fmt   ratio  filename
     8:14.560     284866604 B   cxx   --   ---xx   flac  0.5492  ph2013-10-26s1t01.flac
     8:07.947     281057324 B   cxx   --   ---xx   flac  0.5471  ph2013-10-26s1t02.flac
     8:54.213     307706924 B   cxx   --   ---xx   flac  0.5479  ph2013-10-26s1t03.flac
     5:31.467     190924844 B   cxx   --   ---xx   flac  0.5594  ph2013-10-26s1t04.flac
    12:22.587     427729964 B   cxx   --   ---xx   flac  0.5524  ph2013-10-26s1t05.flac
     5:08.413     177646124 B   cxx   --   ---xx   flac  0.5561  ph2013-10-26s1t06.flac
    11:41.640     404144684 B   cxx   --   ---xx   flac  0.5409  ph2013-10-26s1t07.flac
     7:05.560     245122604 B   cxx   --   ---xx   flac  0.5541  ph2013-10-26s1t08.flac
    11:38.747     402478124 B   cxx   --   ---xx   flac  0.5487  ph2013-10-26s1t09.flac
     6:42.291     231719468 B   cxx   --   ---xx   flac  0.5650  ph2013-10-26s1t10.flac
    19:31.867     674995244 B   cxx   --   ---xx   flac  0.5526  ph2013-10-26s2t01.flac
    13:19.293     460393004 B   cxx   --   ---xx   flac  0.5542  ph2013-10-26s2t02.flac
     9:09.760     316661804 B   cxx   --   ---xx   flac  0.5600  ph2013-10-26s2t03.flac
     7:21.907     254538284 B   cxx   --   ---xx   flac  0.5504  ph2013-10-26s2t04.flac
     6:25.693     222159404 B   cxx   --   ---xx   flac  0.5562  ph2013-10-26s2t05.flac
     7:39.493     264668204 B   cxx   --   ---xx   flac  0.5551  ph2013-10-26s2t06.flac
     8:49.707     305111084 B   cxx   --   ---xx   flac  0.5600  ph2013-10-26s2t07.flac
     2:39.427      91829804 B   cxx   --   ---xx   flac  0.5317  ph2013-10-26s2t08.flac
     6:12.853     214763564 B   cxx   --   ---xx   flac  0.5553  ph2013-10-26s2t09.flac
     7:43.184     266794028 B   cxx   --   ---xx   flac  0.5654  ph2013-10-26s2t10.flac
   174:20.608    6025311088 B                            0.5531  (20 files)

Show Checksums
24bit-FFP
ph2013-10-26s1t01.flac:f86870ff61399f419f8966a7f9fcad72
ph2013-10-26s1t02.flac:809751f8393c2b44727730c3fe6d7bf7
ph2013-10-26s1t03.flac:83b63c3034e4103761a17c696b71449a
ph2013-10-26s1t04.flac:c5944782bacee037a09537ff4bec3bfb
ph2013-10-26s1t05.flac:1128472593f9c1f29c834d3ba47bacb6
ph2013-10-26s1t06.flac:db4f05481ca191cf3396f4eaa871f915
ph2013-10-26s1t07.flac:6db097033ca9f4b08cbab5f1d15beeb3
ph2013-10-26s1t08.flac:b2437939b7f66c42cec8b33f80c912bc
ph2013-10-26s1t09.flac:7cbe4c9fc639f49d0794e590fbb72243
ph2013-10-26s1t10.flac:562639f77578382f3f374d988894888c
ph2013-10-26s2t01.flac:57572c2bc0e25a222b369d9775c57d68
ph2013-10-26s2t02.flac:910d5d69c9f682e84bbd61de8615ec12
ph2013-10-26s2t03.flac:aa14c8d6c5adee970cbd46076e81ae89
ph2013-10-26s2t04.flac:b8cb8dc64ca1034cf2bda47c854a00cd
ph2013-10-26s2t05.flac:b2101ffe2626b0f5f45853a934dea80e
ph2013-10-26s2t06.flac:c29cab405f4d8555eff9c2537ee924fa
ph2013-10-26s2t07.flac:32e30ebf93f22b4138ca7d1a1325d170
ph2013-10-26s2t08.flac:4df1e8ca8ca8101bc3fff45feb01ef2c
ph2013-10-26s2t09.flac:c5d97799bd3ebc79e976ad09eb930904
ph2013-10-26s2t10.flac:2cd68ea140eeebedf4870878e4056d27

Comments
Add Comment
Other Sources (comments)
flac16; Schoeps... (0) flac16; AKG ck8x >... (0) flac24; Schoeps MK41... (0) flac16; Schoeps MK41... (0) flac16; DPA 4011 >... (0) flac16; AKG C414xls... (0) flac16; Busman... (0) flac16; Schoeps... (0) flac16; Schoeps MK4V... (0) flac24; Schoeps MK4V... (0) flac16; Microtech... (0) flac24; Schoeps... (0)
Date User Comment