Browse Collections Artists Sources   Search Dates

Add Show    List Management    Help


Phish 10/25/13
DCU Center, Worcester, MA
Comments Add Comment    Source Collectors    Add to Collection    Add to Want List    History
Source # 126007 Other Sources
Entered by Jason Sobel
Checksums 16bit-FFP
Disc Counts 0 / 0
Media Size Compressed: 0.99 GB (1063283688 bytes)
Date Circulated
Date Added
10/28/2013
10/29/2013
Source Summary flac16; DPA 4011 > Lunatec V3 (Analog) > Tascam DR680 (24/96); SDHC Card > Sound Forge Pro 10.0 (fades, Normalize, resample, dither) > CD Wave > TLH > Flac (level 8); Taped & Transferred by Brian V. 
Source Information - Download Text | Download Zip
Phish
2013-10-25
DCU Center
Worcester, MA

DPA 4011 > V3 (Analog) > DR680 (24/96)
SDHC Card > Sound Forge Pro 10.0 (fades, Normalize, resample iZotope 64-Bit SRC, dither iZotope MBIT+ Dither) > CD Wav (tracking) > TLH > Flac (level 8)
OTS/DFC/DIN/7 1/2' high
Tags added in Foobar2000

Taped and Transferred by Brian V

Set 1

01. Funky Bitch
02. Wolfman's Brother
03. Wilson >
04. The Curtain With
05. Cities >
06. Rift
07. Free
08. My Mind's Got a Mind of its Own
09. Vultures
10. 46 Days

Set 2

01. Waves >
02. Carini
03. Prince Caspian[1] >
04. Backwards Down the Number Line >
05. Ghost >
06. Dirt >
07. Down with Disease[1] >
08. Sneakin' Sally Through the Alley >
09. Cavern >
10. Run Like an Antelope
11. encore break
12. Contact >
13. Suzy Greenberg >
14. Rocky Top >
15. Good Times Bad Times

***Support Bands That Allow Taping/Trading***

flac fingerprints
ph2013-10-25s1t01.flac:f57af9e06986016144cdd15942b0b9ca
ph2013-10-25s1t02.flac:145968a9eb0467670c457465c7bbb504
ph2013-10-25s1t03.flac:f30444a6e4d382252b421de22e80e852
ph2013-10-25s1t04.flac:5172a8f27cf2b35bcf819ca78c553e49
ph2013-10-25s1t05.flac:da9065b202b076eacc2652b807ea521f
ph2013-10-25s1t06.flac:1891561f6a5e1930c88df959c999ee38
ph2013-10-25s1t07.flac:729a2f0b7f30c8001296d62a14dd6f92
ph2013-10-25s1t08.flac:7dd2ebe4af056b2dd26aa16b1dc498c6
ph2013-10-25s1t09.flac:536a22458250af6e8ac62a1274b5829b
ph2013-10-25s1t10.flac:c36775533003485bcf8857bed8bc7514
ph2013-10-25s2t01.flac:1d92bd5c3597793e3045d51e9b62fef0
ph2013-10-25s2t02.flac:3ab6f823fbcfbbe0eb41ce83cc94ad73
ph2013-10-25s2t03.flac:1a2db6834e607b4389af3af7f3fa15b8
ph2013-10-25s2t04.flac:89b169463e71b2f3927e419ad7c80b1c
ph2013-10-25s2t05.flac:7a08e981ed214edefc69d37b11d833ab
ph2013-10-25s2t06.flac:388cc64f68cfef2e1917c489c18c6d24
ph2013-10-25s2t07.flac:ea1f697085d406003829c5f3df415ba4
ph2013-10-25s2t08.flac:f63ea29dd61b2d3943c3af196ea02980
ph2013-10-25s2t09.flac:4566696c75109c593de474230cab99fa
ph2013-10-25s2t10.flac:53fa684a2967f43490cd0ddb6af725ae
ph2013-10-25s2t11.flac:97a4555fd7402daf72d416b87b556dd2
ph2013-10-25s2t12.flac:a86a8951c922a3c03659ef67fccc1872
ph2013-10-25s2t13.flac:a335f8eac1bf8c00b5d7adde31552ecf
ph2013-10-25s2t14.flac:0c70c83ea21088adccde57ddd54dbcde
ph2013-10-25s2t15.flac:92fc3feab736f38662ac18ebdf84106e

shntool output
    length     expanded size    cdr  WAVE problems  fmt   ratio  filename
     6:53.54       72980252 B   ---   --   ---xx   flac  0.5453  ph2013-10-25s1t01.flac
    10:03.68      106529180 B   ---   --   ---xx   flac  0.5533  ph2013-10-25s1t02.flac
     4:46.17       50490428 B   ---   --   ---xx   flac  0.5554  ph2013-10-25s1t03.flac
    13:43.05      145189004 B   ---   --   ---xx   flac  0.5174  ph2013-10-25s1t04.flac
     6:13.27       65860748 B   ---   --   ---xx   flac  0.5310  ph2013-10-25s1t05.flac
     6:12.01       65623196 B   ---   --   ---xx   flac  0.5402  ph2013-10-25s1t06.flac
     8:12.01       86791196 B   ---   --   ---xx   flac  0.5365  ph2013-10-25s1t07.flac
     3:01.23       31982540 B   ---   --   ---xx   flac  0.5338  ph2013-10-25s1t08.flac
     7:02.00       74440844 B   ---   --   ---xx   flac  0.5447  ph2013-10-25s1t09.flac
     7:42.29       81565052 B   ---   --   ---xx   flac  0.5713  ph2013-10-25s1t10.flac
    12:50.34      135908012 B   ---   --   ---xx   flac  0.5262  ph2013-10-25s2t01.flac
     9:49.43      104000780 B   ---   --   ---xx   flac  0.5543  ph2013-10-25s2t02.flac
     5:50.59       61878812 B   ---   --   ---xx   flac  0.5490  ph2013-10-25s2t03.flac
     7:52.16       83298476 B   ---   --   ---xx   flac  0.5615  ph2013-10-25s2t04.flac
    12:21.73      130884140 B   ---   --   ---xx   flac  0.5510  ph2013-10-25s2t05.flac
     5:06.50       54096044 B   ---   --   ---xx   flac  0.5049  ph2013-10-25s2t06.flac
    11:23.01      120483596 B   ---   --   ---xx   flac  0.5412  ph2013-10-25s2t07.flac
     6:33.28       69391100 B   ---   --   ---xx   flac  0.5599  ph2013-10-25s2t08.flac
     4:32.47       48091388 B   ---   --   ---xx   flac  0.5752  ph2013-10-25s2t09.flac
    10:25.50      110367644 B   ---   --   ---xx   flac  0.5375  ph2013-10-25s2t10.flac
     3:05.01       32636396 B   ---   --   ---xx   flac  0.4973  ph2013-10-25s2t11.flac
     6:33.63       69473420 B   ---   --   ---xx   flac  0.5108  ph2013-10-25s2t12.flac
     6:14.53       66098300 B   ---   --   ---xx   flac  0.5705  ph2013-10-25s2t13.flac
     2:30.05       26471804 B   ---   --   ---xx   flac  0.5794  ph2013-10-25s2t14.flac
     5:34.67       59075228 B   ---   --   ---xx   flac  0.5930  ph2013-10-25s2t15.flac
   184:34.65     1953607580 B                            0.5443  (25 files)
Show Checksums
16bit-FFP
ph2013-10-25s1t01.flac:f57af9e06986016144cdd15942b0b9ca
ph2013-10-25s1t02.flac:145968a9eb0467670c457465c7bbb504
ph2013-10-25s1t03.flac:f30444a6e4d382252b421de22e80e852
ph2013-10-25s1t04.flac:5172a8f27cf2b35bcf819ca78c553e49
ph2013-10-25s1t05.flac:da9065b202b076eacc2652b807ea521f
ph2013-10-25s1t06.flac:1891561f6a5e1930c88df959c999ee38
ph2013-10-25s1t07.flac:729a2f0b7f30c8001296d62a14dd6f92
ph2013-10-25s1t08.flac:7dd2ebe4af056b2dd26aa16b1dc498c6
ph2013-10-25s1t09.flac:536a22458250af6e8ac62a1274b5829b
ph2013-10-25s1t10.flac:c36775533003485bcf8857bed8bc7514
ph2013-10-25s2t01.flac:1d92bd5c3597793e3045d51e9b62fef0
ph2013-10-25s2t02.flac:3ab6f823fbcfbbe0eb41ce83cc94ad73
ph2013-10-25s2t03.flac:1a2db6834e607b4389af3af7f3fa15b8
ph2013-10-25s2t04.flac:89b169463e71b2f3927e419ad7c80b1c
ph2013-10-25s2t05.flac:7a08e981ed214edefc69d37b11d833ab
ph2013-10-25s2t06.flac:388cc64f68cfef2e1917c489c18c6d24
ph2013-10-25s2t07.flac:ea1f697085d406003829c5f3df415ba4
ph2013-10-25s2t08.flac:f63ea29dd61b2d3943c3af196ea02980
ph2013-10-25s2t09.flac:4566696c75109c593de474230cab99fa
ph2013-10-25s2t10.flac:53fa684a2967f43490cd0ddb6af725ae
ph2013-10-25s2t11.flac:97a4555fd7402daf72d416b87b556dd2
ph2013-10-25s2t12.flac:a86a8951c922a3c03659ef67fccc1872
ph2013-10-25s2t13.flac:a335f8eac1bf8c00b5d7adde31552ecf
ph2013-10-25s2t14.flac:0c70c83ea21088adccde57ddd54dbcde
ph2013-10-25s2t15.flac:92fc3feab736f38662ac18ebdf84106e

Comments
Add Comment
Other Sources (comments)
flac16; Schoeps... (0) flac16; AKG ck8x >... (0) flac16; AKG ck63 >... (0) flac16; AKG C414xls... (0) flac24; Schoeps MK41... (0) flac16; Schoeps MK41... (0) flac24; DPA 4011 >... (0) flac16; Schoeps... (0) flac24; Schoeps... (0)
Date User Comment