Browse Collections Artists Sources   Search Dates

Add Show    List Management    Help


Phish 10/25/13
DCU Center, Worcester, MA
Comments Add Comment    Source Collectors    Add to Collection    Add to Want List    History
Source # 126008 Other Sources
Entered by Jason Sobel
Checksums 24bit-FFP
Disc Counts 0 / 0
Media Size Compressed: 3.29 GB (3527951804 bytes)
Date Circulated
Date Added
10/28/2013
10/29/2013
Source Summary flac24; DPA 4011 > Lunatec V3 (Analog) > Tascam DR680 (24/96); SDHC Card > Sound Forge Pro 10.0 (fades, Normalize) > CD Wave > TLH > Flac (level 8); Taped & Transferred by Brian V. 
Source Information - Download Text | Download Zip
Phish
2013-10-25
DCU Center
Worcester, MA

DPA 4011 > V3 (Analog) > DR680 (24/96)
SDHC Card > Sound Forge Pro 10.0 (fades, Normalize) > CD Wav (tracking) > TLH > Flac (level 8)
OTS/DFC/DIN/7 1/2' high
Tags added in Foobar2000

Taped and Transferred by Brian V

Set 1

01. Funky Bitch
02. Wolfman's Brother
03. Wilson >
04. The Curtain With
05. Cities >
06. Rift
07. Free
08. My Mind's Got a Mind of its Own
09. Vultures
10. 46 Days

Set 2

01. Waves >
02. Carini
03. Prince Caspian[1] >
04. Backwards Down the Number Line >
05. Ghost >
06. Dirt >
07. Down with Disease[1] >
08. Sneakin' Sally Through the Alley >
09. Cavern >
10. Run Like an Antelope
11. encore break
12. Contact >
13. Suzy Greenberg >
14. Rocky Top >
15. Good Times Bad Times

***Support Bands That Allow Taping/Trading***

flac fingerprints
ph2013-10-25s1t01.flac:2f89df0e8b1b2c4533560d91ec14029c
ph2013-10-25s1t02.flac:a135134cb7583d6ee6e3e31190028850
ph2013-10-25s1t03.flac:dbf689dba3985c9f9ecee7ce71b09616
ph2013-10-25s1t04.flac:da5c8d631fae6f2fc2be198cf2fc808e
ph2013-10-25s1t05.flac:6e155901609db316db42f114bddca1d0
ph2013-10-25s1t06.flac:5c7ca24cd3bd14fe43d7d3290f801677
ph2013-10-25s1t07.flac:9af470fe61940065c6f691c3ab990bc1
ph2013-10-25s1t08.flac:bbf6bd212ae37e6645aa52511012d294
ph2013-10-25s1t09.flac:bd8ca43473ba96f575f1f3b46bc18be1
ph2013-10-25s1t10.flac:90489fa5dcde17922d2b170f54bfccae
ph2013-10-25s2t01.flac:668a2b3665fc5c663b5856e15c43c88c
ph2013-10-25s2t02.flac:33be3c160e7beb1af3927b1dc375f170
ph2013-10-25s2t03.flac:abb410fbc11ba7f37284f2d8ce0307ba
ph2013-10-25s2t04.flac:567e4032c985dc5dc51b00eef9d9ccb3
ph2013-10-25s2t05.flac:33398c47e3d668099bfc486ba749473b
ph2013-10-25s2t06.flac:cbfa00b23d9db219a6eee574ffb26e6a
ph2013-10-25s2t07.flac:84a5367c2173c77d72e5456171ab9b85
ph2013-10-25s2t08.flac:d984f4666ca29e254a7de840a8d47e15
ph2013-10-25s2t09.flac:b192338766316ac86a471e078cb0c439
ph2013-10-25s2t10.flac:205f124c5109a5adaa464da0857b2a73
ph2013-10-25s2t11.flac:9307e34a4aca5387c2a03072dc5a377d
ph2013-10-25s2t12.flac:5dd97ec1aef23fa55aab1c0d0ca54162
ph2013-10-25s2t13.flac:b85a23f4e3b1501c1b2b77709fb3c8a5
ph2013-10-25s2t14.flac:4d4b403bb6da9360e50030d08c113488
ph2013-10-25s2t15.flac:8854a5b9abf2109a87db429dbff3265f


shntool output
    length     expanded size    cdr  WAVE problems  fmt   ratio  filename
     6:53.720     238302764 B   cxx   --   ---xx   flac  0.5555  ph2013-10-25s1t01.flac
    10:03.907     347850284 B   cxx   --   ---xx   flac  0.5584  ph2013-10-25s1t02.flac
     4:46.227     164866604 B   cxx   --   ---xx   flac  0.5597  ph2013-10-25s1t03.flac
    13:43.067     474086444 B   cxx   --   ---xx   flac  0.5397  ph2013-10-25s1t04.flac
     6:13.360     215055404 B   cxx   --   ---xx   flac  0.5458  ph2013-10-25s1t05.flac
     6:12.013     214279724 B   cxx   --   ---xx   flac  0.5530  ph2013-10-25s1t06.flac
     8:12.013     283399724 B   cxx   --   ---xx   flac  0.5503  ph2013-10-25s1t07.flac
     3:01.307     104432684 B   cxx   --   ---xx   flac  0.5489  ph2013-10-25s1t08.flac
     7:02.000     243072044 B   cxx   --   ---xx   flac  0.5528  ph2013-10-25s1t09.flac
     7:42.381     266331692 B   cxx   --   ---xx   flac  0.5692  ph2013-10-25s1t10.flac
    12:50.453     443781164 B   cxx   --   ---xx   flac  0.5419  ph2013-10-25s2t01.flac
     9:49.573     339594284 B   cxx   --   ---xx   flac  0.5576  ph2013-10-25s2t02.flac
     5:50.787     202053164 B   cxx   --   ---xx   flac  0.5544  ph2013-10-25s2t03.flac
     7:52.213     271994924 B   cxx   --   ---xx   flac  0.5605  ph2013-10-25s2t04.flac
    12:21.973     427376684 B   cxx   --   ---xx   flac  0.5554  ph2013-10-25s2t05.flac
     5:06.667     176640044 B   cxx   --   ---xx   flac  0.5321  ph2013-10-25s2t06.flac
    11:23.013     393415724 B   cxx   --   ---xx   flac  0.5515  ph2013-10-25s2t07.flac
     6:33.373     226583084 B   cxx   --   ---xx   flac  0.5602  ph2013-10-25s2t08.flac
     4:32.627     157033004 B   cxx   --   ---xx   flac  0.5677  ph2013-10-25s2t09.flac
    10:25.667     360384044 B   cxx   --   ---xx   flac  0.5499  ph2013-10-25s2t10.flac
     3:05.013     106567724 B   cxx   --   ---xx   flac  0.5332  ph2013-10-25s2t11.flac
     6:33.840     226851884 B   cxx   --   ---xx   flac  0.5353  ph2013-10-25s2t12.flac
     6:14.707     215831084 B   cxx   --   ---xx   flac  0.5655  ph2013-10-25s2t13.flac
     2:30.067      86438444 B   cxx   --   ---xx   flac  0.5705  ph2013-10-25s2t14.flac
     5:34.891     192897068 B   cxx   --   ---xx   flac  0.5785  ph2013-10-25s2t15.flac
   184:34.859    6379119692 B                            0.5530  (25 files)
Show Checksums
24bit-FFP
ph2013-10-25s1t01.flac:2f89df0e8b1b2c4533560d91ec14029c
ph2013-10-25s1t02.flac:a135134cb7583d6ee6e3e31190028850
ph2013-10-25s1t03.flac:dbf689dba3985c9f9ecee7ce71b09616
ph2013-10-25s1t04.flac:da5c8d631fae6f2fc2be198cf2fc808e
ph2013-10-25s1t05.flac:6e155901609db316db42f114bddca1d0
ph2013-10-25s1t06.flac:5c7ca24cd3bd14fe43d7d3290f801677
ph2013-10-25s1t07.flac:9af470fe61940065c6f691c3ab990bc1
ph2013-10-25s1t08.flac:bbf6bd212ae37e6645aa52511012d294
ph2013-10-25s1t09.flac:bd8ca43473ba96f575f1f3b46bc18be1
ph2013-10-25s1t10.flac:90489fa5dcde17922d2b170f54bfccae
ph2013-10-25s2t01.flac:668a2b3665fc5c663b5856e15c43c88c
ph2013-10-25s2t02.flac:33be3c160e7beb1af3927b1dc375f170
ph2013-10-25s2t03.flac:abb410fbc11ba7f37284f2d8ce0307ba
ph2013-10-25s2t04.flac:567e4032c985dc5dc51b00eef9d9ccb3
ph2013-10-25s2t05.flac:33398c47e3d668099bfc486ba749473b
ph2013-10-25s2t06.flac:cbfa00b23d9db219a6eee574ffb26e6a
ph2013-10-25s2t07.flac:84a5367c2173c77d72e5456171ab9b85
ph2013-10-25s2t08.flac:d984f4666ca29e254a7de840a8d47e15
ph2013-10-25s2t09.flac:b192338766316ac86a471e078cb0c439
ph2013-10-25s2t10.flac:205f124c5109a5adaa464da0857b2a73
ph2013-10-25s2t11.flac:9307e34a4aca5387c2a03072dc5a377d
ph2013-10-25s2t12.flac:5dd97ec1aef23fa55aab1c0d0ca54162
ph2013-10-25s2t13.flac:b85a23f4e3b1501c1b2b77709fb3c8a5
ph2013-10-25s2t14.flac:4d4b403bb6da9360e50030d08c113488
ph2013-10-25s2t15.flac:8854a5b9abf2109a87db429dbff3265f

Comments
Add Comment
Other Sources (comments)
flac16; Schoeps... (0) flac16; AKG ck8x >... (0) flac16; AKG ck63 >... (0) flac16; AKG C414xls... (0) flac24; Schoeps MK41... (0) flac16; Schoeps MK41... (0) flac16; DPA 4011 >... (0) flac16; Schoeps... (0) flac24; Schoeps... (0)
Date User Comment