Browse Collections Artists Sources   Search Dates

Add Show    List Management    Help


Phish 10/27/13
XL Center, Hartford, CT
Comments Add Comment    Source Collectors    Add to Collection    Add to Want List    History
Source # 126013 Other Sources
Entered by
Checksums 16bit-FFP
Disc Counts 0 / 0
Media Size Compressed: 926.46 MB (971460536 bytes)
Date Circulated
Date Added
10/29/2013
10/30/2013
Source Summary flac16; Schoeps MK4V > Nbob actives > Naiant PFAs > Sonosax SX-R4 (24bit/96khz); WAV > USB > Macbook Pro > Wave Editor (tracking, fades, resample/dither to 16 bit/44.1k) > XAct (FLAC 8); Taped & Transferred by Andy Murray 
Source Information - Download Text | Download Zip
Phish
2013-10-27
XL Center
Hartford, CT

Source:
Schoeps MK4V>Nbob actives>Naiant PFAs>Sonosax SX-R4 (24bit/96khz)
mics were DIN

Lineage:
WAV>USB>Macbook Pro>Wave Editor(tracking,fades,resample(izotope)/dither(mbit+)to 16 bit/44.1k)>XAct(FLAC 8,ffp,fix sbe)

Taped by: Andy Murray
Transferred by: Andy Murray

Thanks to Chris King for the use of the 4Vs.

2 Sets

Set 1:

01 crowd
02 Rock and Roll
03 Ocelot
04 Tube
05 Halfway to the Moon
06 Fee[1] >
07 Maze
08 Lawn Boy
09 Nellie Kane
10 NICU
11 A Song I Heard the Ocean Sing
12 Walls of the Cave

Set 2:

01 crowd
02 Chalk Dust Torture >
03 Tweezer >
04 Birds of a Feather
05 Golden Age >
06 Halley's Comet >
07 Also Sprach Zarathustra >
08 Fluffhead >
09 Slave to the Traffic Light

Encore:
10 encore break
11 Loving Cup >
12 Tweezer Reprise

[1] Trey sang verses through megaphone.

;flac fingerprints generated by xACT 2.24 on 2013-10-29 19:33:26 -0400

ph2013-10-27_mk4v_1644_d1t01.flac:2b03ce48d9a51538222769ce373d996f
ph2013-10-27_mk4v_1644_d1t02.flac:1f9bceb7cba36755558c1f361aac46f9
ph2013-10-27_mk4v_1644_d1t03.flac:4bd16dd4114e55cf7d903c28eae7443a
ph2013-10-27_mk4v_1644_d1t04.flac:c95f8cb0d10dcb9bb6bd17717b490584
ph2013-10-27_mk4v_1644_d1t05.flac:2e2af1e51e2dd09ce1360d409d2fabf0
ph2013-10-27_mk4v_1644_d1t06.flac:f3c663290e252301040db17724c41e2f
ph2013-10-27_mk4v_1644_d1t07.flac:58d882bac77164db01c8650fe37bfdc3
ph2013-10-27_mk4v_1644_d1t08.flac:bfa38fcbf5955ccecad128d614b03ede
ph2013-10-27_mk4v_1644_d1t09.flac:d1ceb100a453c2e67010c352a6d55d30
ph2013-10-27_mk4v_1644_d1t10.flac:b2a08e76fe01882a77ead61c454f28f7
ph2013-10-27_mk4v_1644_d1t11.flac:2ad1af4f9b33eddf663ed23061b3bebb
ph2013-10-27_mk4v_1644_d1t12.flac:cb6ddccd72dc8075868e29bea751ae48
ph2013-10-27_mk4v_1644_d2t01.flac:144bc2a13a4dbe0ab6aafe63a47e247a
ph2013-10-27_mk4v_1644_d2t02.flac:df9492937fee935e07e5d2469af6a32d
ph2013-10-27_mk4v_1644_d2t03.flac:30bd912dacf916d606258314548c0410
ph2013-10-27_mk4v_1644_d2t04.flac:ed8bb776415496d23b535d16f2796bdb
ph2013-10-27_mk4v_1644_d2t05.flac:ff7dc86f38e2896dce1ec6674b6ce386
ph2013-10-27_mk4v_1644_d2t06.flac:522df3cd873723f7938caa1921fc8464
ph2013-10-27_mk4v_1644_d2t07.flac:36a3f62214cd74b90ab294f7de8d9fb3
ph2013-10-27_mk4v_1644_d2t08.flac:acce77dbb7ebc29bbe14ad8884fb2217
ph2013-10-27_mk4v_1644_d2t09.flac:e158a0ab8675563011fbdbb85a79d933
ph2013-10-27_mk4v_1644_d2t10.flac:7597c95264dd3962e45788f8d9394d2f
ph2013-10-27_mk4v_1644_d2t11.flac:ac5341489af375f3b295dd09d08b3b05
ph2013-10-27_mk4v_1644_d2t12.flac:74d19e94b3c03a607c916f1004187455

    length     expanded size    cdr  WAVE problems  fmt   ratio  filename
     0:52.54        9299852 B   ---   --   -----    wav  1.0000  ph2013-10-27_mk4v_1644_d1t01.wav
    11:10.62      118333868 B   ---   --   -----    wav  1.0000  ph2013-10-27_mk4v_1644_d1t02.wav
     8:32.58       90453260 B   ---   --   -----    wav  1.0000  ph2013-10-27_mk4v_1644_d1t03.wav
     4:16.67       45316028 B   ---   --   -----    wav  1.0000  ph2013-10-27_mk4v_1644_d1t04.wav
     6:53.29       72921452 B   ---   --   -----    wav  1.0000  ph2013-10-27_mk4v_1644_d1t05.wav
     6:50.39       72415772 B   ---   --   -----    wav  1.0000  ph2013-10-27_mk4v_1644_d1t06.wav
     9:56.27      105197948 B   ---   --   -----    wav  1.0000  ph2013-10-27_mk4v_1644_d1t07.wav
     3:35.17       37966028 B   ---   --   -----    wav  1.0000  ph2013-10-27_mk4v_1644_d1t08.wav
     3:03.65       32434124 B   ---   --   -----    wav  1.0000  ph2013-10-27_mk4v_1644_d1t09.wav
     5:16.41       55838876 B   ---   --   -----    wav  1.0000  ph2013-10-27_mk4v_1644_d1t10.wav
     6:21.12       67236668 B   ---   --   -----    wav  1.0000  ph2013-10-27_mk4v_1644_d1t11.wav
    11:58.67      126812828 B   ---   --   -----    wav  1.0000  ph2013-10-27_mk4v_1644_d1t12.wav
     0:38.62        6849068 B   ---   --   -----    wav  1.0000  ph2013-10-27_mk4v_1644_d2t01.wav
     6:39.57       70517708 B   ---   --   -----    wav  1.0000  ph2013-10-27_mk4v_1644_d2t02.wav
    17:31.24      185452892 B   ---   --   -----    wav  1.0000  ph2013-10-27_mk4v_1644_d2t03.wav
     6:41.62       70882268 B   ---   --   -----    wav  1.0000  ph2013-10-27_mk4v_1644_d2t04.wav
    16:43.41      177025676 B   ---   --   -----    wav  1.0000  ph2013-10-27_mk4v_1644_d2t05.wav
     6:09.72       65260988 B   ---   --   -----    wav  1.0000  ph2013-10-27_mk4v_1644_d2t06.wav
     8:05.28       85619900 B   ---   --   -----    wav  1.0000  ph2013-10-27_mk4v_1644_d2t07.wav
    13:57.05      147658604 B   ---   --   -----    wav  1.0000  ph2013-10-27_mk4v_1644_d2t08.wav
    10:27.18      110645180 B   ---   --   -----    wav  1.0000  ph2013-10-27_mk4v_1644_d2t09.wav
     3:40.57       38942108 B   ---   --   -----    wav  1.0000  ph2013-10-27_mk4v_1644_d2t10.wav
     6:10.52       65390348 B   ---   --   -----    wav  1.0000  ph2013-10-27_mk4v_1644_d2t11.wav
     3:39.65       38784524 B   ---   --   -----    wav  1.0000  ph2013-10-27_mk4v_1644_d2t12.wav
   179:15.31     1897255968 B                            1.0000  (24 files)



Show Checksums
16bit-FFP
ph2013-10-27_mk4v_1644_d1t01.flac:2b03ce48d9a51538222769ce373d996f
ph2013-10-27_mk4v_1644_d1t02.flac:1f9bceb7cba36755558c1f361aac46f9
ph2013-10-27_mk4v_1644_d1t03.flac:4bd16dd4114e55cf7d903c28eae7443a
ph2013-10-27_mk4v_1644_d1t04.flac:c95f8cb0d10dcb9bb6bd17717b490584
ph2013-10-27_mk4v_1644_d1t05.flac:2e2af1e51e2dd09ce1360d409d2fabf0
ph2013-10-27_mk4v_1644_d1t06.flac:f3c663290e252301040db17724c41e2f
ph2013-10-27_mk4v_1644_d1t07.flac:58d882bac77164db01c8650fe37bfdc3
ph2013-10-27_mk4v_1644_d1t08.flac:bfa38fcbf5955ccecad128d614b03ede
ph2013-10-27_mk4v_1644_d1t09.flac:d1ceb100a453c2e67010c352a6d55d30
ph2013-10-27_mk4v_1644_d1t10.flac:b2a08e76fe01882a77ead61c454f28f7
ph2013-10-27_mk4v_1644_d1t11.flac:2ad1af4f9b33eddf663ed23061b3bebb
ph2013-10-27_mk4v_1644_d1t12.flac:cb6ddccd72dc8075868e29bea751ae48
ph2013-10-27_mk4v_1644_d2t01.flac:144bc2a13a4dbe0ab6aafe63a47e247a
ph2013-10-27_mk4v_1644_d2t02.flac:df9492937fee935e07e5d2469af6a32d
ph2013-10-27_mk4v_1644_d2t03.flac:30bd912dacf916d606258314548c0410
ph2013-10-27_mk4v_1644_d2t04.flac:ed8bb776415496d23b535d16f2796bdb
ph2013-10-27_mk4v_1644_d2t05.flac:ff7dc86f38e2896dce1ec6674b6ce386
ph2013-10-27_mk4v_1644_d2t06.flac:522df3cd873723f7938caa1921fc8464
ph2013-10-27_mk4v_1644_d2t07.flac:36a3f62214cd74b90ab294f7de8d9fb3
ph2013-10-27_mk4v_1644_d2t08.flac:acce77dbb7ebc29bbe14ad8884fb2217
ph2013-10-27_mk4v_1644_d2t09.flac:e158a0ab8675563011fbdbb85a79d933
ph2013-10-27_mk4v_1644_d2t10.flac:7597c95264dd3962e45788f8d9394d2f
ph2013-10-27_mk4v_1644_d2t11.flac:ac5341489af375f3b295dd09d08b3b05
ph2013-10-27_mk4v_1644_d2t12.flac:74d19e94b3c03a607c916f1004187455

Comments
Add Comment
Other Sources (comments)
flac16; Schoeps... (0) flac16; Schoeps mk22... (0) flac24; Schoeps mk22... (0) flac24; DPA 4011 >... (0) flac16; DPA 4011 >... (0) flac24; Schoeps MK41... (0) flac16; Schoeps MK41... (0) flac16; Telefunken... (1) flac24; Schoeps MK4V... (0) flac16; Schoeps... (0) flac16; AKG C414xls... (0) flac24; Schoeps... (0)
Date User Comment