Browse Collections Artists Sources   Search Dates

Add Show    List Management    Help


Phish 10/26/13
DCU Center, Worcester, MA
Comments Add Comment    Source Collectors    Add to Collection    Add to Want List    History
Source # 126027 Other Sources
Entered by Jason Sobel
Checksums 16bit-FFP
Disc Counts 0 / 0
Media Size Compressed: 935.24 MB (980667926 bytes)
Date Circulated
Date Added
10/30/2013
10/31/2013
Source Summary flac16; Schoeps MK4V > Nbob actives > Naiant PFAs > Sonosax SX-R4 (24bit/96khz); WAV > USB > Macbook Pro > Wave Editor (tracking, fades, resample/dither to 16 bit/44.1k) > XAct (FLAC 8); Taped & Transferred by Andy Murray 
Source Information - Download Text | Download Zip
Phish
2013-10-26
DCU Center
Worcester, MA

Source:
Schoeps MK4V>Nbob actives>Naiant PFAs>Sonosax SX-R4 (24bit/96khz)
mics were DIN

Lineage:
WAV>USB>Macbook Pro>Wave Editor(tracking,fades,resample(izotope)/dither(mbit+)to 16 bit/44.1k)>XAct(FLAC 8,ffp,fix sbe)

Taped by: Andy Murray
Transferred by: Andy Murray

Thanks to Chris King for the use of the 4Vs.

2 Sets

Set 1:

01 crowd
02 Party Time
03 Punch You In the Eye >
04 Back on the Train
05 My Soul
06 Bathtub Gin
07 Ride Captain Ride
08 Stash
09 Simple >
10 David Bowie
11 Character Zero

Set 2:

01 crowd
02 Drowned >
03 Light
04 Sand >
05 Theme From the Bottom >
06 Mike's Song >
07 No Quarter >
08 Weekapaug Groove

Encore:
09 encore break
10 Boogie On Reggae Woman
11 Possum[1]

[1] W/ Kenwood Dennard on drums.

;flac fingerprints generated by xACT 2.24 on 2013-10-30 20:28:21 -0400

ph2013-10-26_mk4v_1644_d1t01.flac:ef4267b08e3be3427ed4a7b7862a39a1
ph2013-10-26_mk4v_1644_d1t02.flac:f05e61e981e943c64a59e266a97a630d
ph2013-10-26_mk4v_1644_d1t03.flac:55e2ad8fae4d668fb563ea180d8999b7
ph2013-10-26_mk4v_1644_d1t04.flac:e60886c2b456c07425b975fffe366b72
ph2013-10-26_mk4v_1644_d1t05.flac:dca89f754bfc25f262d0571a9496ffec
ph2013-10-26_mk4v_1644_d1t06.flac:b8ccc3f90099c2084b02c9c15a6e788c
ph2013-10-26_mk4v_1644_d1t07.flac:689ca7b5f54642177482713d88355445
ph2013-10-26_mk4v_1644_d1t08.flac:eed60ef05bd7ca9f2aa1515c6fa3d0c9
ph2013-10-26_mk4v_1644_d1t09.flac:459feca00bbb3501209247f872393853
ph2013-10-26_mk4v_1644_d1t10.flac:096f3e34e7f4324bebac9f0bd418715e
ph2013-10-26_mk4v_1644_d1t11.flac:cb7fa59e675672cca4a0cf1bb4d5df47
ph2013-10-26_mk4v_1644_d2t01.flac:eb7736f6cd4de78dc04ff122b0173bf8
ph2013-10-26_mk4v_1644_d2t02.flac:72a57935a2b5186e31fbc224fa8f2483
ph2013-10-26_mk4v_1644_d2t03.flac:e9925d75826569d14d744ebc04ccea2a
ph2013-10-26_mk4v_1644_d2t04.flac:494ad287905f340ce97159a135efe210
ph2013-10-26_mk4v_1644_d2t05.flac:0cbc7f120892a090bba82127cff04c01
ph2013-10-26_mk4v_1644_d2t06.flac:51f5ee2ba327ed2cd5d6401a847d4e80
ph2013-10-26_mk4v_1644_d2t07.flac:4ebeb13640b9149df67aed0851fce1f4
ph2013-10-26_mk4v_1644_d2t08.flac:886c0c9b57eef8f6bfd3e322042638d1
ph2013-10-26_mk4v_1644_d2t09.flac:3bb2fb26a36149e692b77f86e2cc624d
ph2013-10-26_mk4v_1644_d2t10.flac:cbe2df957f97e02476768a8f8ec7f931
ph2013-10-26_mk4v_1644_d2t11.flac:d8c4e5efa3ce58dabe3406213a7ad803

    length     expanded size    cdr  WAVE problems  fmt   ratio  filename
     1:15.67       13387628 B   ---   --   -----    wav  1.0000  ph2013-10-26_mk4v_1644_d1t01.wav
     7:57.45       84248684 B   ---   --   -----    wav  1.0000  ph2013-10-26_mk4v_1644_d1t02.wav
     8:10.18       86478380 B   ---   --   -----    wav  1.0000  ph2013-10-26_mk4v_1644_d1t03.wav
     8:54.49       94312892 B   ---   --   -----    wav  1.0000  ph2013-10-26_mk4v_1644_d1t04.wav
     5:31.38       58477820 B   ---   --   -----    wav  1.0000  ph2013-10-26_mk4v_1644_d1t05.wav
    12:22.59      131027612 B   ---   --   -----    wav  1.0000  ph2013-10-26_mk4v_1644_d1t06.wav
     5:07.59       54293612 B   ---   --   -----    wav  1.0000  ph2013-10-26_mk4v_1644_d1t07.wav
    11:41.65      123809324 B   ---   --   -----    wav  1.0000  ph2013-10-26_mk4v_1644_d1t08.wav
     7:05.37       75057068 B   ---   --   -----    wav  1.0000  ph2013-10-26_mk4v_1644_d1t09.wav
    11:38.39      123218972 B   ---   --   -----    wav  1.0000  ph2013-10-26_mk4v_1644_d1t10.wav
     7:23.17       78185228 B   ---   --   -----    wav  1.0000  ph2013-10-26_mk4v_1644_d1t11.wav
     1:32.60       16369964 B   ---   --   -----    wav  1.0000  ph2013-10-26_mk4v_1644_d2t01.wav
    18:51.32      199583708 B   ---   --   -----    wav  1.0000  ph2013-10-26_mk4v_1644_d2t02.wav
    13:15.28      140303900 B   ---   --   -----    wav  1.0000  ph2013-10-26_mk4v_1644_d2t03.wav
     9:14.03       97732700 B   ---   --   -----    wav  1.0000  ph2013-10-26_mk4v_1644_d2t04.wav
     7:21.74       77966492 B   ---   --   -----    wav  1.0000  ph2013-10-26_mk4v_1644_d2t05.wav
     6:25.50       68031644 B   ---   --   -----    wav  1.0000  ph2013-10-26_mk4v_1644_d2t06.wav
     7:39.09       80988812 B   ---   --   -----    wav  1.0000  ph2013-10-26_mk4v_1644_d2t07.wav
     8:41.70       92069084 B   ---   --   -----    wav  1.0000  ph2013-10-26_mk4v_1644_d2t08.wav
     2:47.19       29503532 B   ---   --   -----    wav  1.0000  ph2013-10-26_mk4v_1644_d2t09.wav
     6:11.44       65547932 B   ---   --   -----    wav  1.0000  ph2013-10-26_mk4v_1644_d2t10.wav
     8:41.03       91911500 B   ---   --   -----    wav  1.0000  ph2013-10-26_mk4v_1644_d2t11.wav
   177:51.60     1882506488 B                            1.0000  (22 files)


Show Checksums
16bit-FFP
ph2013-10-26_mk4v_1644_d1t01.flac:ef4267b08e3be3427ed4a7b7862a39a1
ph2013-10-26_mk4v_1644_d1t02.flac:f05e61e981e943c64a59e266a97a630d
ph2013-10-26_mk4v_1644_d1t03.flac:55e2ad8fae4d668fb563ea180d8999b7
ph2013-10-26_mk4v_1644_d1t04.flac:e60886c2b456c07425b975fffe366b72
ph2013-10-26_mk4v_1644_d1t05.flac:dca89f754bfc25f262d0571a9496ffec
ph2013-10-26_mk4v_1644_d1t06.flac:b8ccc3f90099c2084b02c9c15a6e788c
ph2013-10-26_mk4v_1644_d1t07.flac:689ca7b5f54642177482713d88355445
ph2013-10-26_mk4v_1644_d1t08.flac:eed60ef05bd7ca9f2aa1515c6fa3d0c9
ph2013-10-26_mk4v_1644_d1t09.flac:459feca00bbb3501209247f872393853
ph2013-10-26_mk4v_1644_d1t10.flac:096f3e34e7f4324bebac9f0bd418715e
ph2013-10-26_mk4v_1644_d1t11.flac:cb7fa59e675672cca4a0cf1bb4d5df47
ph2013-10-26_mk4v_1644_d2t01.flac:eb7736f6cd4de78dc04ff122b0173bf8
ph2013-10-26_mk4v_1644_d2t02.flac:72a57935a2b5186e31fbc224fa8f2483
ph2013-10-26_mk4v_1644_d2t03.flac:e9925d75826569d14d744ebc04ccea2a
ph2013-10-26_mk4v_1644_d2t04.flac:494ad287905f340ce97159a135efe210
ph2013-10-26_mk4v_1644_d2t05.flac:0cbc7f120892a090bba82127cff04c01
ph2013-10-26_mk4v_1644_d2t06.flac:51f5ee2ba327ed2cd5d6401a847d4e80
ph2013-10-26_mk4v_1644_d2t07.flac:4ebeb13640b9149df67aed0851fce1f4
ph2013-10-26_mk4v_1644_d2t08.flac:886c0c9b57eef8f6bfd3e322042638d1
ph2013-10-26_mk4v_1644_d2t09.flac:3bb2fb26a36149e692b77f86e2cc624d
ph2013-10-26_mk4v_1644_d2t10.flac:cbe2df957f97e02476768a8f8ec7f931
ph2013-10-26_mk4v_1644_d2t11.flac:d8c4e5efa3ce58dabe3406213a7ad803

Comments
Add Comment
Other Sources (comments)
flac16; Schoeps... (0) flac16; AKG ck8x >... (0) flac24; Schoeps MK41... (0) flac16; Schoeps MK41... (0) flac16; DPA 4011 >... (0) flac24; DPA 4011 >... (0) flac16; AKG C414xls... (0) flac16; Busman... (0) flac16; Schoeps... (0) flac24; Schoeps MK4V... (0) flac16; Microtech... (0) flac24; Schoeps... (0)
Date User Comment