Browse Collections Artists Sources   Search Dates

Add Show    List Management    Help


Garcia 02/24/80
Gym (SUNY), Stony Brook, NY
Comments Add Comment    Source Collectors    Add to Collection    Add to Want List    History
Source # 126078 Other Sources
Entered by Joe Jupille
Checksums jgb1980-02-24.ffp , jgb1980-02-24.md5
Disc Counts 0 / 0
Media Size Compressed: 679.37 MB (712372224 bytes)
Uncompressed: 1.21 GB (1294313228 bytes)
Date Circulated
Date Added
11/05/2013
11/05/2013
Source Summary 16 bit: AUD: 2x AKG D222E > Nakamichi 550, FOB "in the sweet spot". Transfer: MAC > Nakamichi 1000-II > Sound Devices USB Pre-2 > WAV 2496. Edits: WAV 2496 > Wavelab > R8Brain > CD-Wave > TLH > FLAC 1644 tagged. Concert recording & transfer by Richie Stankiewicz, edits by Andrew F. 11/2013 
Source Information - Download Text | Download Zip
JERRY GARCIA BAND
Gymnasium - SUNY
Stony Brook NY
02-24-1980

16bit/44.1kHz file-set

s1t01 crowd
s1t02 Sugaree
s1t03 Catfish John
s1t04 How Sweet It Is
s1t05 Sitting Here In Limbo
s1t06 That's Alright Mama

s2t01 crowd
s2t02 That's What Love Will Make You Do
s2t03 When I Paint My Masterpiece
s2t04 Tore Up Over You
s2t05 I'll Take A Melody
s2t06 The Harder They Come
s2t07 Encore: Midnight Moonlight

AUD: 2x AKG D222E > Nakamichi 550, FOB "in the sweet spot".

Transfer: MAC > Nakamichi 1000-II > Sound Devices USB Pre-2 > WAV 2496.

Edits: WAV 2496 > Wavelab > R8Brain > CD-Wave > TLH > FLAC 1644 tagged.

Concert recording & transfer by Richie Stankiewicz, edits by Andrew F. 11/2013

Note: Patch from ID-106582, Tore Up Over You 0:00 > 0:18.


    length     expanded size    cdr  WAVE problems  fmt   ratio  filename
     1:05.21       11515436 B   ---   --   ---xx   flac  0.5095  jgb1980-02-24s1t01.flac
    15:32.23      164458940 B   ---   --   ---xx   flac  0.5798  jgb1980-02-24s1t02.flac
    10:20.16      109405676 B   ---   --   ---xx   flac  0.5603  jgb1980-02-24s1t03.flac
     8:53.23       94075340 B   ---   --   ---xx   flac  0.5833  jgb1980-02-24s1t04.flac
    12:50.20      135875084 B   ---   --   ---xx   flac  0.5205  jgb1980-02-24s1t05.flac
     8:35.64       90996572 B   ---   --   ---xx   flac  0.5780  jgb1980-02-24s1t06.flac
     1:46.73       18870140 B   ---   --   ---xx   flac  0.4613  jgb1980-02-24s2t01.flac
     9:36.03      101613500 B   ---   --   ---xx   flac  0.5357  jgb1980-02-24s2t02.flac
     9:19.29       98675852 B   ---   --   ---xx   flac  0.5345  jgb1980-02-24s2t03.flac
    10:25.67      110407628 B   ---   --   ---xx   flac  0.5610  jgb1980-02-24s2t04.flac
    13:02.25      138003644 B   ---   --   ---xx   flac  0.5243  jgb1980-02-24s2t05.flac
    12:29.44      132227132 B   ---   --   ---xx   flac  0.5446  jgb1980-02-24s2t06.flac
     8:19.70       88188284 B   ---   --   ---xx   flac  0.5606  jgb1980-02-24s2t07.flac
   122:17.28     1294313228 B                            0.5503  (13 files)

No errors occured.


Show Checksums
jgb1980-02-24.ffp
jgb1980-02-24s1t01.flac:ab399d3e71c13fdf00a6f2470a997ec5
jgb1980-02-24s1t02.flac:a678e0b76d8002826443bd53f897847c
jgb1980-02-24s1t03.flac:3bde4bd0061b6f6546c4d61797f9cce8
jgb1980-02-24s1t04.flac:feba87db8ece024f36aa9c3106b70d92
jgb1980-02-24s1t05.flac:f3269f8195a05c4e5766f5dfb1f86732
jgb1980-02-24s1t06.flac:67aaace20c8b18b8ec99faa9b86a71c3
jgb1980-02-24s2t01.flac:a213f18cb106d7ebe2ea2f6e1fe518f8
jgb1980-02-24s2t02.flac:ccea22e6b92649ce592731b359349850
jgb1980-02-24s2t03.flac:a279c6ddf1054075a02ef580fb2a08e9
jgb1980-02-24s2t04.flac:33c55cc30b0d387ac964990985fa5354
jgb1980-02-24s2t05.flac:208fdc70ccce03e67794519ccecdd38e
jgb1980-02-24s2t06.flac:219c040bcf64c8d50ea0f24010ef999d
jgb1980-02-24s2t07.flac:d49a70c09570e1482b08b4deb3320447
jgb1980-02-24.md5
3a8cb2296cb3f5ea2139a424aa4bea76 *jgb1980-02-24s1t01.flac
2b7927598bc9d2352b4b0afe090e2a5d *jgb1980-02-24s1t02.flac
af56144fe5efacd6ba08a7b1c0637dc4 *jgb1980-02-24s1t03.flac
73dc2a8cefa934647a370399f69429e5 *jgb1980-02-24s1t04.flac
58a24bebf35597aa9cba13c46065dbf5 *jgb1980-02-24s1t05.flac
8823f500dea3513734f50f9a24ce4514 *jgb1980-02-24s1t06.flac
dd8d619312ff4868919c97f606f709fd *jgb1980-02-24s2t01.flac
1c040b028d3a4fed366c1be89c0eb659 *jgb1980-02-24s2t02.flac
12ec935b341aac42736e97cf42ba9c25 *jgb1980-02-24s2t03.flac
15d9bd115068c8125d7e5f4cac316285 *jgb1980-02-24s2t04.flac
0e5df42b750f67b22e72d771564e133f *jgb1980-02-24s2t05.flac
a4497f5b14ba56715eafe70df8b00490 *jgb1980-02-24s2t06.flac
ae1dbeb10809e3bcb0071da0d9476f26 *jgb1980-02-24s2t07.flac

Comments
Add Comment
Other Sources (comments)
Jerry Garcia Band: There is... (1) Jerry Gracia Band: AUD : MC... (0) Jerry Garcia Band: MAC... (0) JGB: Charlie Connor's FOB... (0) 24bit: AUD: 2x AKG D222E >... (0)
Date User Comment