Browse Collections Artists Sources   Search Dates

Add Show    List Management    Help


Grateful Dead 05/15/80
Nassau Coliseum, Uniondale, NY
Comments Add Comment    Source Collectors    Add to Collection    Add to Want List    History
Source # 126082 Other Sources
Entered by Matt Vernon
Checksums orig-md5 , orig-ffp , ffp , flac-md5
Disc Counts 0 / 0
Media Size Compressed: 3.2 GB (3434582080 bytes)
Uncompressed: 4.99 GB (5355655824 bytes)
Date Circulated
Date Added
11/07/2013
11/07/2013
Source Summary flac24; Recording by Jim Wise: Master Audience Cassette; 2 Sony ECM-280s> Sony D-5; Transfer and FLAC encoding by David Minches: Master played back on Nakamichi Dragon > Korg MR-1000(DSF [1-bit 5.6448 MHz Stereo]) Korg AudioGate > WAV [24/96] > Adobe Audition 3.0> FLAC encoding 
  Archive
Source Information - Download Text | Download Zip
Grateful Dead
1980-05-15 (Wednesday)
Nassau Veterans Memorial Coliseum
Uniondale, NY

Recording by Jim Wise:
Master Audience Cassette; 2 Sony ECM-280s> Sony D-5

Transfer and FLAC encoding by David Minches:
Master played back on Nakamichi Dragon > Korg MR-1000(DSF [1-bit 5.6448 MHz Stereo]) Korg AudioGate >
WAV [24/96] > Adobe Audition 3.0> FLAC encoding

--Set 1--
s1t01 Tuning
s1t02 Jack Straw >
s1t03 Franklin's Tower
s1t04 Cassidy
s1t05 They Love Each Other
s1t06 Lazy Lightning >
s1t07 Supplication
s1t08 Peggy-O
s1t09 Far From Me
s1t10 Feel Like A Stranger >
s1t11 Deal

--Set2--
s2t01 Tuning
s2t02 Althea
s2t03 Lost Sailor >
s2t04 Saint Of Circumstance >
s2t05 Terrapin Station >
s2t06 Playing In The Band >
s2t07 Uncle John's Band >
s2t08 Drums >
s2t09 Space >
s2t10 Not Fade Away >
s2t11 Goin' Down The Road Feeling Bad >
s2t12 Good Lovin'

--Encore--
s2t13 Alabama Getaway


    length     expanded size    cdr  WAVE problems  fmt   ratio  filename
     3:11.771     110460122 B   cxx   --   ---xx   flac  0.6292  s01t01 - Tuning.flac
     5:53.644     203699162 B   cxx   --   ---xx   flac  0.6480  s01t02 - Jack Straw.flac
    12:32.589     433491320 B   cxx   --   ---xx   flac  0.6427  s01t03 - Franklin's Tower.flac
     4:59.240     172362350 B   cxx   --   ---xx   flac  0.6410  s01t04 - Cassidy.flac
     7:54.527     273327344 B   cxx   --   ---xx   flac  0.6296  s01t05 - They Love Each Other.flac
     3:39.556     126464474 B   cxx   --   ---xx   flac  0.6419  s01t06 - Lazy Lightning.flac
     6:06.444     211071614 B   cxx   --   ---xx   flac  0.6446  s01t07 - Supplication.flac
     7:29.528     258928214 B   cxx   --   ---xx   flac  0.6287  s01t08 - Peggy-O.flac
     4:43.801     163469684 B   cxx   --   ---xx   flac  0.6375  s01t09 - Far From Me.flac
     8:47.296     303722498 B   cxx   --   ---xx   flac  0.6412  s01t10 - Feel Like a Stranger.flac
     5:16.775     182462408 B   cxx   --   ---xx   flac  0.6487  s01t11 - Deal.flac
     0:37.872      21814382 B   cxx   --   ---xx   flac  0.6232  s02t01 - Tuning.flac
     9:22.742     324139538 B   cxx   --   ---xx   flac  0.6299  s02t02 - Althea.flac
     6:01.224     208065242 B   cxx   --   ---xx   flac  0.6328  s02t03 - Lost Sailor.flac
     6:07.254     211538198 B   cxx   --   ---xx   flac  0.6497  s02t04 - Saint of Circumstance.flac
    12:12.853     422123138 B   cxx   --   ---xx   flac  0.6338  s02t05 - Terrapin Station.flac
     7:51.367     271507394 B   cxx   --   ---xx   flac  0.6385  s02t06 - Playing in the Band.flac
     8:17.576     286603622 B   cxx   --   ---xx   flac  0.6550  s02t07 - Uncle John's Band.flac
     6:38.567     229574774 B   cxx   --   ---xx   flac  0.6320  s02t08 - Drums.flac
     2:48.459      97032152 B   cxx   --   ---xx   flac  0.6429  s02t09 - Space.flac
     5:09.546     178298534 B   cxx   --   ---xx   flac  0.6551  s02t10 - Not Fade Away.flac
     6:40.210     230520836 B   cxx   --   ---xx   flac  0.6569  s02t11 - Goin' Down the Road.flac
     7:58.316     275510144 B   cxx   --   ---xx   flac  0.6526  s02t12 - Good Lovin'.flac
     4:36.855     159468680 B   cxx   --   ---xx   flac  0.6513  s02t13 - Alabama Getaway.flac
   154:58.012    5355655824 B                            0.6413  (24 files)




Show Checksums
orig-md5
f70702df95a67937dcf4777ea58b5336 *s01t01 - Tuning.flac
c016d7b56ef8abc737d159af3cc3f29e *s01t02 - Jack Straw.flac
15ee266c3f9f0361eaafaf3fd428a53d *s01t03 - Franklin's Tower.flac
644e072b9caac1ca747518c3d8aa712b *s01t04 - Cassidy.flac
4b23d3003a4d6759f660be0f600a234c *s01t05 - They Love Each Other.flac
596530197472adba2c6405692570b6f3 *s01t06 - Lazy Lightning.flac
353cfac2929987e89bd330cd744f1aa3 *s01t07 - Supplication.flac
3694d78c71e9d1d23a6c9c7a1c914414 *s01t08 - Peggy-O.flac
d11e47e9fd5b8339f6ac93baf58aed44 *s01t09 - Far From Me.flac
7ce3d8532ab5e37be989a0e73eeb5127 *s01t10 - Feel Like a Stranger.flac
d57b2d87ee06d9ffad6b7fb8518b395d *s01t11 - Deal.flac
05ff26c4af2cf69edaab31fbbd03bd96 *s02t01 - Tuning.flac
261b375bdb4a4a099eeb282af240a52f *s02t02 - Althea.flac
31cdc987fd5bc5789a8e36631268478e *s02t03 - Lost Sailor.flac
b53fb0880743d79fd1a4d81e9e26abf7 *s02t04 - Saint of Circumstance.flac
c6c3d55232714a199a5723d367bb867f *s02t05 - Terrapin Station.flac
2e268296145475c3d9f7dcfa756b9060 *s02t06 - Playing in the Band.flac
7d77d66e96ddcc969e6310dcba57dcc4 *s02t07 - Uncle John's Band.flac
fd224160ce33ff4cf79e3a3b6f8b537f *s02t08 - Drums.flac
e521cbfa8fb9961e2bc9e28339b093e1 *s02t09 - Space.flac
a6d4797c427b8dd98d95db904be28c0e *s02t10 - Not Fade Away.flac
eb3596e10b57446d32edfc711317722b *s02t11 - Goin' Down the Road.flac
55788db6eeec9cf8e0364d83b12143b7 *s02t12 - Good Lovin'.flac
bac59b59cd2d0745e71900030a2aba82 *s02t13 - Alabama Getaway.flac
orig-ffp
s01t01 - Tuning.flac:1fb49ffbbb8604062fd01de6e302e9f9
s01t02 - Jack Straw.flac:0e6fe293e6c017d1ac6e7b65d1a4b73a
s01t03 - Franklin's Tower.flac:90e3c390cc5a5ccca6de06f74763ae60
s01t04 - Cassidy.flac:fded7c344c7a751d919d190605b98e2e
s01t05 - They Love Each Other.flac:8dab475228f59a457b2181ec1511b66b
s01t06 - Lazy Lightning.flac:1578eb0d24188efcc141eaee070faef4
s01t07 - Supplication.flac:6face1b17b23914e20d308d07f2cae8d
s01t08 - Peggy-O.flac:64ba35b72d0c338f6262ae3c0265a36a
s01t09 - Far From Me.flac:d4aa50cf5a4444126ad3ce8ab6521cee
s01t10 - Feel Like a Stranger.flac:58dd158ee22752b0476c5366bb35c86d
s01t11 - Deal.flac:a4e6fd46c4db2b20204d9c824181f2ad
s02t01 - Tuning.flac:548cd0b2f4fe9898fffe565500f4673d
s02t02 - Althea.flac:fa1e2e49127543c94e739c4292a02921
s02t03 - Lost Sailor.flac:5f3e1b1870083e27b57b748f7cf8e723
s02t04 - Saint of Circumstance.flac:56d597c55b0dd47cd68ee33869eaa3a6
s02t05 - Terrapin Station.flac:e980ddb58d1a770a81d56a40cd907485
s02t06 - Playing in the Band.flac:a1ddc48140437c2f5e85a99c00a83d17
s02t07 - Uncle John's Band.flac:036eb5fa3f4d6254f6f0f3bc2b2229a8
s02t08 - Drums.flac:11d62296beb1465aac29ee64013496e1
s02t09 - Space.flac:511712d07490b62256fe874a0ba5355f
s02t10 - Not Fade Away.flac:6b95541dd346063685e1561c0e32c9b0
s02t11 - Goin' Down the Road.flac:2f8172903e5f8d83627571c0c73f6015
s02t12 - Good Lovin'.flac:5cb75f4ca925227f2eccd526e80006ae
s02t13 - Alabama Getaway.flac:0aee3c211959fc85577cbc2755319aa2
ffp
s01t01.flac:1fb49ffbbb8604062fd01de6e302e9f9
s01t02.flac:0e6fe293e6c017d1ac6e7b65d1a4b73a
s01t03.flac:90e3c390cc5a5ccca6de06f74763ae60
s01t04.flac:fded7c344c7a751d919d190605b98e2e
s01t05.flac:8dab475228f59a457b2181ec1511b66b
s01t06.flac:1578eb0d24188efcc141eaee070faef4
s01t07.flac:6face1b17b23914e20d308d07f2cae8d
s01t08.flac:64ba35b72d0c338f6262ae3c0265a36a
s01t09.flac:d4aa50cf5a4444126ad3ce8ab6521cee
s01t10.flac:58dd158ee22752b0476c5366bb35c86d
s01t11.flac:a4e6fd46c4db2b20204d9c824181f2ad
s02t01.flac:548cd0b2f4fe9898fffe565500f4673d
s02t02.flac:fa1e2e49127543c94e739c4292a02921
s02t03.flac:5f3e1b1870083e27b57b748f7cf8e723
s02t04.flac:56d597c55b0dd47cd68ee33869eaa3a6
s02t05.flac:e980ddb58d1a770a81d56a40cd907485
s02t06.flac:a1ddc48140437c2f5e85a99c00a83d17
s02t07.flac:036eb5fa3f4d6254f6f0f3bc2b2229a8
s02t08.flac:11d62296beb1465aac29ee64013496e1
s02t09.flac:511712d07490b62256fe874a0ba5355f
s02t10.flac:6b95541dd346063685e1561c0e32c9b0
s02t11.flac:2f8172903e5f8d83627571c0c73f6015
s02t12.flac:5cb75f4ca925227f2eccd526e80006ae
s02t13.flac:0aee3c211959fc85577cbc2755319aa2
flac-md5
f70702df95a67937dcf4777ea58b5336 *s01t01.flac
c016d7b56ef8abc737d159af3cc3f29e *s01t02.flac
15ee266c3f9f0361eaafaf3fd428a53d *s01t03.flac
644e072b9caac1ca747518c3d8aa712b *s01t04.flac
4b23d3003a4d6759f660be0f600a234c *s01t05.flac
596530197472adba2c6405692570b6f3 *s01t06.flac
353cfac2929987e89bd330cd744f1aa3 *s01t07.flac
3694d78c71e9d1d23a6c9c7a1c914414 *s01t08.flac
d11e47e9fd5b8339f6ac93baf58aed44 *s01t09.flac
7ce3d8532ab5e37be989a0e73eeb5127 *s01t10.flac
d57b2d87ee06d9ffad6b7fb8518b395d *s01t11.flac
05ff26c4af2cf69edaab31fbbd03bd96 *s02t01.flac
261b375bdb4a4a099eeb282af240a52f *s02t02.flac
31cdc987fd5bc5789a8e36631268478e *s02t03.flac
b53fb0880743d79fd1a4d81e9e26abf7 *s02t04.flac
c6c3d55232714a199a5723d367bb867f *s02t05.flac
2e268296145475c3d9f7dcfa756b9060 *s02t06.flac
7d77d66e96ddcc969e6310dcba57dcc4 *s02t07.flac
fd224160ce33ff4cf79e3a3b6f8b537f *s02t08.flac
e521cbfa8fb9961e2bc9e28339b093e1 *s02t09.flac
a6d4797c427b8dd98d95db904be28c0e *s02t10.flac
eb3596e10b57446d32edfc711317722b *s02t11.flac
55788db6eeec9cf8e0364d83b12143b7 *s02t12.flac
bac59b59cd2d0745e71900030a2aba82 *s02t13.flac

Comments
Add Comment
Other Sources (comments)
AUD> MC> DAT> CDR; via Alan... (0) flac16; AUD Source:... (0) flac16; Recording... (0) flac16;Analog... (0) flac24;Analog... (1) flac16; 2 Source... (0)
Date User Comment