Browse Collections Artists Sources   Search Dates

Add Show    List Management    Help


Grateful Dead 05/16/80
Nassau Coliseum, Uniondale, NY
Comments Add Comment    Source Collectors    Add to Collection    Add to Want List    History
Source # 126104 Other Sources
Entered by Matt Vernon
Checksums orig-ffp , orig-md5 , ffp , flac-md5
Disc Counts 0 / 0
Media Size Compressed: 3.31 GB (3553722744 bytes)
Uncompressed: 5.28 GB (5664205484 bytes)
Date Circulated
Date Added
11/10/2013
11/10/2013
Source Summary flac24; Recording by Jim Wise: Master Audience Cassette; 2 Sony ECM-280s > Sony D-5; Transfer and FLAC encoding by David Minches: Master played back on Nakamichi Dragon > Korg MR-1000(DSF [1-bit 5.6448 MHz Stereo])Korg AudioGate > WAV [24/96] > Adobe Audition 3.0 > FLAC encoding 
  Archive
Source Information - Download Text | Download Zip
Grateful Dead
1980-05-16
Nassau Veterans Memorial Coliseum
Uniondale, NY

Recording by Jim Wise:
Master Audience Cassette; 2 Sony ECM-280s > Sony D-5

Transfer and FLAC encoding by David Minches:
Master played back on Nakamichi Dragon > Korg MR-1000(DSF [1-bit 5.6448 MHz Stereo])Korg AudioGate >
WAV [24/96] > Adobe Audition 3.0 > FLAC encoding

--Set 1--
s1t01 Tuning
s1t02 Alabama Getaway >
s1t03 Promised Land
s1t04 High Time
s1t05 Me & My Uncle >
s1t06 Big River
s1t07 Row Jimmy
s1t08 Minglewood Blues
s1t09 Ramble On Rose

s1t10 Looks Like Rain

s1t11 China Cat Sunflower >
s1t12 I Know You Rider



--Set 2--
s2t01 Tuning
s2t02 Feel Like A Stranger >
s2t03 Althea
s2t04 Lost Sailor >
s2t05 St. of Circumstance >
s2t06 Eyes of the World >
s2t07 Drums >
s2t08 Space >
s2t09 Truckin' >
s2t10 Morning Dew >
s2t11 Around & Around >
s2t12 Johnny B. Goode

--Encore--
s2t13 Brokedown Palace


    length     expanded size    cdr  WAVE problems  fmt   ratio  filename
     1:08.135      39245642 B   cxx   --   ---xx   flac  0.6212  s01t01 - Tuning.flac
     4:18.352     148810796 B   cxx   --   ---xx   flac  0.6326  s01t02 - Alabama Getaway.flac
     5:26.358     187982210 B   cxx   --   ---xx   flac  0.6260  s01t03 - Promised Land.flac
     8:26.857     291949958 B   cxx   --   ---xx   flac  0.6181  s01t04 - High Time.flac
     3:02.776     105279194 B   cxx   --   ---xx   flac  0.6312  s01t05 - Me and My Uncle.flac
     6:54.918     238992974 B   cxx   --   ---xx   flac  0.6264  s01t06 - Big River.flac
    11:59.181     414248432 B   cxx   --   ---xx   flac  0.6230  s01t07 - Row Jimmy.flac
     7:32.310     260530418 B   cxx   --   ---xx   flac  0.6330  s01t08 - Minglewood Blues.flac
     7:37.494     263516798 B   cxx   --   ---xx   flac  0.6323  s01t09 - Ramble on Rose.flac
     8:07.880     281018774 B   cxx   --   ---xx   flac  0.6271  s01t10 - Looks Like Rain.flac
     5:21.007     184900262 B   cxx   --   ---xx   flac  0.6350  s01t11 - China Cat Sunflower.flac
     6:05.653     210615968 B   cxx   --   ---xx   flac  0.6363  s01t12 - I Know Your Rider.flac
     2:07.831      73630778 B   cxx   --   ---xx   flac  0.6187  s02t01 - Tuning.flac
     8:26.995     292029086 B   cxx   --   ---xx   flac  0.6303  s02t02 - Feel Like a Stranger.flac
     8:16.640     286064822 B   cxx   --   ---xx   flac  0.6298  s02t03 - Althea.flac
     5:45.260     198869792 B   cxx   --   ---xx   flac  0.6253  s02t04 - Lost Sailor.flac
     6:03.359     209295104 B   cxx   --   ---xx   flac  0.6346  s02t05 - Saint of Circumstance.flac
     9:56.481     343573088 B   cxx   --   ---xx   flac  0.6319  s02t06 - Eyes of the World.flac
     9:18.772     321852746 B   cxx   --   ---xx   flac  0.6263  s02t07 - Drums.flac
     4:53.253     168913916 B   cxx   --   ---xx   flac  0.6116  s02t08 - Space.flac
     7:48.815     270037268 B   cxx   --   ---xx   flac  0.6395  s02t09 - Truckin'.flac
     9:50.291     340007462 B   cxx   --   ---xx   flac  0.6272  s02t10 - Morning Dew.flac
     4:00.322     138425258 B   cxx   --   ---xx   flac  0.6398  s02t11 - Around and Around.flac
     4:27.320     153976316 B   cxx   --   ---xx   flac  0.6455  s02t12 - Johnny B. Goode.flac
     6:57.428     240438422 B   cxx   --   ---xx   flac  0.5869  s02t13 - Brokedown Palace.flac
   163:53.688    5664205484 B                            0.6274  (25 files)




Show Checksums
orig-ffp
s01t01 - Tuning.flac:175488e263a10728454dc392c2cc4e9c
s01t02 - Alabama Getaway.flac:957179fe50e9a4671639253a81e79b92
s01t03 - Promised Land.flac:c806d833e1b591c79e1dbfa7935ca336
s01t04 - High Time.flac:c71b540ad02864434214abd8885e751d
s01t05 - Me and My Uncle.flac:4e32101fafc9ebbe830b99eb665b785b
s01t06 - Big River.flac:1bd4ecc4ca3cd246c31d426b3208b396
s01t07 - Row Jimmy.flac:13afc093f2d469ad37dee819190a2a1e
s01t08 - Minglewood Blues.flac:715d093c9f6e9114d2f16c3a0f9e2c9b
s01t09 - Ramble on Rose.flac:d457303518c94bed01c567987039b526
s01t10 - Looks Like Rain.flac:5d8952c2c8cda75d26c3937fc8967a2d
s01t11 - China Cat Sunflower.flac:7781990f25f8cd207ac95426d132b0d6
s01t12 - I Know Your Rider.flac:984faf0fd90ad94ed0f1be35da07c340
s02t01 - Tuning.flac:4d73d317587409bf0dfae64ed011c8d4
s02t02 - Feel Like a Stranger.flac:271e4c76b82ae7595ce49d7ba5b7cbd2
s02t03 - Althea.flac:17e683ac71ba5b24e5f7137bc64c6bea
s02t04 - Lost Sailor.flac:a9794c8ddeba09a54eed32b478785371
s02t05 - Saint of Circumstance.flac:456214f21b945695073d77db69c21e36
s02t06 - Eyes of the World.flac:a3701d851ed5f04a7d521a7f9b6f93da
s02t07 - Drums.flac:a502af96332e219b1c9da8b039d77d59
s02t08 - Space.flac:0171abc83f3c4e258386e1924c2e97c9
s02t09 - Truckin'.flac:de25d6e5178ca6ca9401a4143c10550d
s02t10 - Morning Dew.flac:c7e08e31c0317827a072678d413f7307
s02t11 - Around and Around.flac:11845682178429549f1b9b2d92637e19
s02t12 - Johnny B. Goode.flac:1f2c8ac075e2c8285564b982df730a48
s02t13 - Brokedown Palace.flac:8b1e9f3cc4862d01f21e88b2d1974641
orig-md5
cb27733876b3ee566b370c255c369c6a *s01t01 - Tuning.flac
faa68918d246677ad3618ad014985591 *s01t02 - Alabama Getaway.flac
70533a5c3e4b6d007852ffdc772c4b66 *s01t03 - Promised Land.flac
7103e8db2357bd873151dcc4e54dfc11 *s01t04 - High Time.flac
3600668a583ee19d8c389910353ba931 *s01t05 - Me and My Uncle.flac
4c46a2ca36bdc9c637f38ab1ab60949b *s01t06 - Big River.flac
bb7af6d038190b459b20c0cf40cbe4b4 *s01t07 - Row Jimmy.flac
020d31b31f59996f63a859bc9e878296 *s01t08 - Minglewood Blues.flac
832dbe913641f623cce8a45ad5d40a19 *s01t09 - Ramble on Rose.flac
d568874a82df58fc324bfa133a176910 *s01t10 - Looks Like Rain.flac
4feddc887e6620dc6ae8c1befa1abade *s01t11 - China Cat Sunflower.flac
c77cc53ae8ca24705e55e1990e5896d4 *s01t12 - I Know Your Rider.flac
5e7290115f374488db977688e4f9f097 *s02t01 - Tuning.flac
f589fa2cff45c4a5bc29cac4809d0b82 *s02t02 - Feel Like a Stranger.flac
d505aa9a9b221c92214d1811b71fb1f3 *s02t03 - Althea.flac
c1acb665d3637b93ae7bda6c7f6ecc8b *s02t04 - Lost Sailor.flac
8c5aa991c7e281379e230e6976a32503 *s02t05 - Saint of Circumstance.flac
9be0b72cd1c7e21c935196fe315fd5a0 *s02t06 - Eyes of the World.flac
62ba9d5bbe13573cc69852404743d6a5 *s02t07 - Drums.flac
eda645fb031259ec528f5d6821f5f579 *s02t08 - Space.flac
8b8875da3a9a30dfa75181bea33848ac *s02t09 - Truckin'.flac
dabee789bc9b80627ac301762313626d *s02t10 - Morning Dew.flac
8000e28cbc1e9fe6680afc30a968f302 *s02t11 - Around and Around.flac
a2a841abdcd3d576173c5e02f3f4c328 *s02t12 - Johnny B. Goode.flac
228ec49a8cdba02fcbf8341e1dfb4c8e *s02t13 - Brokedown Palace.flac
ffp
s01t01.flac:175488e263a10728454dc392c2cc4e9c
s01t02.flac:957179fe50e9a4671639253a81e79b92
s01t03.flac:c806d833e1b591c79e1dbfa7935ca336
s01t04.flac:c71b540ad02864434214abd8885e751d
s01t05.flac:4e32101fafc9ebbe830b99eb665b785b
s01t06.flac:1bd4ecc4ca3cd246c31d426b3208b396
s01t07.flac:13afc093f2d469ad37dee819190a2a1e
s01t08.flac:715d093c9f6e9114d2f16c3a0f9e2c9b
s01t09.flac:d457303518c94bed01c567987039b526
s01t10.flac:5d8952c2c8cda75d26c3937fc8967a2d
s01t11.flac:7781990f25f8cd207ac95426d132b0d6
s01t12.flac:984faf0fd90ad94ed0f1be35da07c340
s02t01.flac:4d73d317587409bf0dfae64ed011c8d4
s02t02.flac:271e4c76b82ae7595ce49d7ba5b7cbd2
s02t03.flac:17e683ac71ba5b24e5f7137bc64c6bea
s02t04.flac:a9794c8ddeba09a54eed32b478785371
s02t05.flac:456214f21b945695073d77db69c21e36
s02t06.flac:a3701d851ed5f04a7d521a7f9b6f93da
s02t07.flac:a502af96332e219b1c9da8b039d77d59
s02t08.flac:0171abc83f3c4e258386e1924c2e97c9
s02t09.flac:de25d6e5178ca6ca9401a4143c10550d
s02t10.flac:c7e08e31c0317827a072678d413f7307
s02t11.flac:11845682178429549f1b9b2d92637e19
s02t12.flac:1f2c8ac075e2c8285564b982df730a48
s02t13.flac:8b1e9f3cc4862d01f21e88b2d1974641
flac-md5
cb27733876b3ee566b370c255c369c6a *s01t01.flac
faa68918d246677ad3618ad014985591 *s01t02.flac
70533a5c3e4b6d007852ffdc772c4b66 *s01t03.flac
7103e8db2357bd873151dcc4e54dfc11 *s01t04.flac
3600668a583ee19d8c389910353ba931 *s01t05.flac
4c46a2ca36bdc9c637f38ab1ab60949b *s01t06.flac
bb7af6d038190b459b20c0cf40cbe4b4 *s01t07.flac
020d31b31f59996f63a859bc9e878296 *s01t08.flac
832dbe913641f623cce8a45ad5d40a19 *s01t09.flac
d568874a82df58fc324bfa133a176910 *s01t10.flac
4feddc887e6620dc6ae8c1befa1abade *s01t11.flac
c77cc53ae8ca24705e55e1990e5896d4 *s01t12.flac
5e7290115f374488db977688e4f9f097 *s02t01.flac
f589fa2cff45c4a5bc29cac4809d0b82 *s02t02.flac
d505aa9a9b221c92214d1811b71fb1f3 *s02t03.flac
c1acb665d3637b93ae7bda6c7f6ecc8b *s02t04.flac
8c5aa991c7e281379e230e6976a32503 *s02t05.flac
9be0b72cd1c7e21c935196fe315fd5a0 *s02t06.flac
62ba9d5bbe13573cc69852404743d6a5 *s02t07.flac
eda645fb031259ec528f5d6821f5f579 *s02t08.flac
8b8875da3a9a30dfa75181bea33848ac *s02t09.flac
dabee789bc9b80627ac301762313626d *s02t10.flac
8000e28cbc1e9fe6680afc30a968f302 *s02t11.flac
a2a841abdcd3d576173c5e02f3f4c328 *s02t12.flac
228ec49a8cdba02fcbf8341e1dfb4c8e *s02t13.flac

Comments
Add Comment
Other Sources (comments)
Master Soundboard Cassette... (1) flac16; Source 1:... (0) flac16; Source: 3... (0) flac16; Taper: Gerry... (0) flac16; Source: FOB... (0) flac16; 2 source... (0)
Date User Comment