Browse Collections Artists Sources   Search Dates

Add Show    List Management    Help


Grateful Dead 04/06/89
Crisler Arena, Ann Arbor, MI
Comments Add Comment    Source Collectors    Add to Collection    Add to Want List    History
Source # 126149 Other Sources
Entered by Matt Vernon
Checksums ffp , flac-md5
Disc Counts 0 / 0
Media Size Compressed: 930 MB (975175680 bytes)
Uncompressed: 1.52 GB (1629595928 bytes)
Date Circulated
Date Added
11/17/2013
11/17/2013
Source Summary flac16; (original shnid = 100672) Taper: Greg Holtz Source: Nakamichi CM-100 mics with CP-4 shotgun caps -> Sony D-5 Transfer: By JAZ, Master Cassettes (Maxell MX90 Metal) Tascam 112 -> Korg MR-1, @ 1bit 2.8MHz -> USB -> Korg Audio Gate Software 24bit 48KHz -> Wave Lab 5.0 w/UAD -> r8brain PRO for Sample Rate Conversion 16/44.1KHz -> Traders Little Helper flac8 - pitch correction and patches by Kevin Tobin 
  Archive
Source Information - Download Text | Download Zip
Grateful Dead
Crisler Arena
Ann Arbor, MI
University of Michigan
April 6, 1989

Patched and pitch corrected Audience

Set 1:
d1t01- Touch Of Grey
d1t02- Little Red Rooster
d1t03- Brown Eyed Women
d1t04 - Mama Tried ->
d1t05 - Mexicali Blues
d1t06 - Althea
d1t07 - When I Paint My Masterpiece
d1t08 - Bird Song
d1t09 - The Promised Land

Set 2:
d2t01 - Tuning
d2t02 - Scarlet Begonias ->
d2t03 - Fire On The Mountain
d2t04 - Playing In The Band ->
d2t05 - Built To Last ->
d2t06 - Drums ->
d3t01 - Space ->
d3t02 - I Will Take You Home ->
d3t03 - The Other One ->
d3t04 - Wharf Rat ->
d3t05 - Around And Around ->
d3t06 - Playing In The Band

Encore:
d3t07 - Brokedown Palace


Audio Source Information
shnid = 100672
Recording Information:
Source: Nakamichi CM-100 mics with CP-4 shotgun caps -> Sony D-5
Taper: Greg Holtz

Transfer: By JAZ, Master Cassettes (Maxell MX90 Metal) Tascam 112 -> Korg MR-1, @ 1bit 2.8MHz -> USB -> Korg Audio Gate Software 24bit 48KHz -> Wave Lab 5.0 w/UAD ->  r8brain PRO for Sample Rate Conversion 16/44.1KHz -> Traders Little Helper flac8

Patched with:
SBD
shnid = 83508
Recording Info:
SBD -> Cassette Master (TDK MA-XG90)

Transfer Info:
Cassette Master (Tascam 122mkII) -> Apogee MiniMe (24bit/48k) ->
Samplitude Professional v8.01 -> FLAC/16
(3 Discs Audio / 2 Discs FLAC)

All Transfers and Mastering By Charlie Miller
[email protected]
January 24, 2007

Notes:
-- 2nd Set is seamless
-- Thanks to Paul Scotton and Joani Walker for the tapes
---------------------------------------------------------
- Mixed by [email protected]
- FLAC conversion 17-NOV-2013 - Trader Little Helper
- Tagged 17-NOV-2013 - Tag&Rename
---------------------------------------------------------
Audio Patches:
1) About 1 minute into Drums, 1 minute and 07.276 seconds were missing from the audience and were filled in with audio from the soundboard.

Brokedown House Production

    length     expanded size    cdr  WAVE problems  fmt   ratio  filename
     6:34.10       69525164 B   ---   --   -----    wav  1.0000  gd1989-04-06d1t01.wav
     9:18.26       98492396 B   ---   --   -----    wav  1.0000  gd1989-04-06d1t02.wav
     5:02.04       53282252 B   ---   --   -----    wav  1.0000  gd1989-04-06d1t03.wav
     2:34.13       27196220 B   ---   --   -----    wav  1.0000  gd1989-04-06d1t04.wav
     4:56.34       52294412 B   ---   --   -----    wav  1.0000  gd1989-04-06d1t05.wav
     6:52.42       72775628 B   ---   --   -----    wav  1.0000  gd1989-04-06d1t06.wav
     5:23.55       57106604 B   ---   --   -----    wav  1.0000  gd1989-04-06d1t07.wav
    13:14.56      140193356 B   ---   --   -----    wav  1.0000  gd1989-04-06d1t08.wav
     4:26.59       47061212 B   ---   --   -----    wav  1.0000  gd1989-04-06d1t09.wav
     1:13.65       13030124 B   ---   --   -----    wav  1.0000  gd1989-04-06d2t01.wav
     9:28.01      100197596 B   ---   --   -----    wav  1.0000  gd1989-04-06d2t02.wav
    12:33.51      132949196 B   ---   --   -----    wav  1.0000  gd1989-04-06d2t03.wav
    12:42.15      134452124 B   ---   --   -----    wav  1.0000  gd1989-04-06d2t04.wav
     7:19.61       77583116 B   ---   --   -----    wav  1.0000  gd1989-04-06d2t05.wav
    10:09.13      107458220 B   ---   --   -----    wav  1.0000  gd1989-04-06d2t06.wav
     6:49.59       72286412 B   ---   --   -----    wav  1.0000  gd1989-04-06d3t01.wav
     4:09.49       44038892 B   ---   --   -----    wav  1.0000  gd1989-04-06d3t02.wav
     7:33.67       80066828 B   ---   --   -----    wav  1.0000  gd1989-04-06d3t03.wav
     9:45.39      103285772 B   ---   --   -----    wav  1.0000  gd1989-04-06d3t04.wav
     4:00.07       42352508 B   ---   --   -----    wav  1.0000  gd1989-04-06d3t05.wav
     4:24.28       46635500 B   ---   --   -----    wav  1.0000  gd1989-04-06d3t06.wav
     5:25.01       57332396 B   ---   --   -----    wav  1.0000  gd1989-04-06d3t07.wav
   153:58.05     1629595928 B                            1.0000  (22 files)



Show Checksums
ffp
gd1989-04-06d1t01.flac:8c80f0be40776ebc5372c6091fc1c648
gd1989-04-06d1t02.flac:e673fda9520402b000967069b35d1e52
gd1989-04-06d1t03.flac:dd33e2a47472a5ba748ff1969dbb0cf3
gd1989-04-06d1t04.flac:624bc069263fee453bc61748c2406f97
gd1989-04-06d1t05.flac:af608ea61e6f53f16454d9798f77355b
gd1989-04-06d1t06.flac:0cbbb15672f0fde928bed679f57180d4
gd1989-04-06d1t07.flac:67ce157f9ab47f32e59f1973fb3a50c2
gd1989-04-06d1t08.flac:63b43ceb2269461a6d49ae4dc332140b
gd1989-04-06d1t09.flac:7551b0263c1ea6368a34ec7566694a33
gd1989-04-06d2t01.flac:1b95b10e5c63506f2ace6364ef9eea6d
gd1989-04-06d2t02.flac:99204ab200b32ea93aec0cd10d842672
gd1989-04-06d2t03.flac:abdaee5825ee55c4cde2d9241de70536
gd1989-04-06d2t04.flac:24549940cfe13786bb672a65b61fb4b8
gd1989-04-06d2t05.flac:c36507ee1a88915ab02cf6889646ea35
gd1989-04-06d2t06.flac:d7f00c81a227c6010ab872a4ccc01f50
gd1989-04-06d3t01.flac:a0985df74161a8fd644ca7eb00691775
gd1989-04-06d3t02.flac:ec99b076045cd2535136e5916fa22674
gd1989-04-06d3t03.flac:b1e9f3575f02ac0e0eaa72230dc10168
gd1989-04-06d3t04.flac:7c15439e588c3855431b674ea30504bc
gd1989-04-06d3t05.flac:a6026568752bde582b3092928ec4758b
gd1989-04-06d3t06.flac:f132e5b45e78a387087aedcfa658a8d2
gd1989-04-06d3t07.flac:c88f4a2c673646877c657a629bf67ca9
flac-md5
79881d050b6e35b914b66b23a5f616c0 *gd1989-04-06d1t01.flac
e2b4be95c2dfe3ab58d808163141abb0 *gd1989-04-06d1t02.flac
7199a2ef06c76ac1aa0e659ddfe57f13 *gd1989-04-06d1t03.flac
b14a2b43488b4cd61c7a4362e02c8b3a *gd1989-04-06d1t04.flac
14bef020b7dcac484ed92ce61b4440ef *gd1989-04-06d1t05.flac
f4dfa422f47c3f53e0b887c8873eabb4 *gd1989-04-06d1t06.flac
d03bc6f74c875e2395dc820939f2dcc6 *gd1989-04-06d1t07.flac
d41762d9506c604595b27d1d579abdf1 *gd1989-04-06d1t08.flac
0214ede68e02f4a90e9da6be3e200054 *gd1989-04-06d1t09.flac
d0c4be2ec290ecad287ac888e6a4c612 *gd1989-04-06d2t01.flac
94157028115753ad17fd86cd5f2ad25d *gd1989-04-06d2t02.flac
a2dbecd3ad8bf0b3a799ecbe60978c82 *gd1989-04-06d2t03.flac
2aa1b39b6e7a1ea3160ad9c240f19b64 *gd1989-04-06d2t04.flac
58410982f8bd18dd315cc7ab2c1a1582 *gd1989-04-06d2t05.flac
8381a890237d65bc8ea1546aee0d9fa5 *gd1989-04-06d2t06.flac
0d182ee4d6d2b571b974daf2b37d5c9e *gd1989-04-06d3t01.flac
b853d18885dce4fd5ceb07f08595fcd5 *gd1989-04-06d3t02.flac
e7880ed05c62a6381e971908106bd7a9 *gd1989-04-06d3t03.flac
ca27fbb124ef7b2d5c2188e88f031554 *gd1989-04-06d3t04.flac
bc4471d15fb58078520e72d79df7ed52 *gd1989-04-06d3t05.flac
52f8d6c395de6fcc2af3a74b4477e856 *gd1989-04-06d3t06.flac
4ac7490bd261eb6ed84d2deff627442e *gd1989-04-06d3t07.flac

Comments
Add Comment
Other Sources (comments)
Healy Ultra Mix - sbd+aud>... (2) complete; Soundboard... (1) flac16; Recording... (0) flac16; source: aud... (0) flac16; matrix... (0) flac16; Taper: Greg... (0) flac16; Recorded &... (0) flac16; Matrix 2... (0) DTS-Audio-CD 5.1... (0) flac16; Source Info:... (0)
Date User Comment