Browse Collections Artists Sources   Search Dates

Add Show    List Management    Help


Grateful Dead 08/21/80
Uptown Theater, Chicago, IL
Comments Add Comment    Source Collectors    Add to Collection    Add to Want List    History
Source # 126368 Other Sources
Entered by Matt Vernon
Checksums ffp , flac-md5
Disc Counts 0 / 0
Media Size Compressed: 2.83 GB (3035643904 bytes)
Uncompressed: 4.36 GB (4676396830 bytes)
Date Circulated
Date Added
12/22/2013
12/22/2013
Source Summary flac24; AUD: 2 AKG D222E + 1 Beyer M160 > Nakamichi 550, Orch 20th row right center. Transfer: MAC > Nakamichi 1000-II > Sound Devices USB Pre-2 > WAV 2496. Edits: WAV 2496 > Wavelab > CD-Wave (24bit output) > TLH > FLAC 2496 tagged. Concert recording & transfer by Richie Stankiewicz, edits by Andrew F. 12/2013 
  Archive
Source Information - Download Text | Download Zip
GRATEFUL DEAD
Uptown Theatre
Chicago IL
08-21-1980

24bit/96kHz file-set

s1t01 crowd
s1t02 Cold Rain & Snow >
s1t03 Minglewood Blues
s1t04 High Time
s1t05 Mama Tried >
s1t06 Mexicali Blues
s1t07 Peggy-O
s1t08 It's All Over Now
s1t09 Easy to Love You
s1t10 Shakedown Street >
s1t11 Promised Land

s2t01 Drums >
s2t02 Uncle John's Band >
s2t03 Truckin' >
s2t04 The Other One >
s2t05 Drum//s >
s2t06 The Wheel >
s2t07 Uncle John's Band Reprise >
s2t08 Sugar Magnolia
s2t09 Encore: Alabama Getaway

AUD: 2 AKG D222E + 1 Beyer M160 > Nakamichi 550, Orch 20th row right center.

Transfer: MAC > Nakamichi 1000-II > Sound Devices USB Pre-2 > WAV 2496.

Edits: WAV 2496 > Wavelab > CD-Wave (24bit output) > TLH > FLAC 2496 tagged.

Concert recording & transfer by Richie Stankiewicz, edits by Andrew F. 12/2013

Note: Tape flip near end of Drums, one-second crossfade at 5:52.

    length     expanded size    cdr  WAVE problems  fmt   ratio  filename
     0:44.293      25513004 B   cxx   --   ---xx   flac  0.6138  gd1980-08-21s1t01.flac
     6:13.907     215370284 B   cxx   --   ---xx   flac  0.6504  gd1980-08-21s1t02.flac
     8:57.800     309772844 B   cxx   --   ---xx   flac  0.6487  gd1980-08-21s1t03.flac
     9:13.573     318858284 B   cxx   --   ---xx   flac  0.6439  gd1980-08-21s1t04.flac
     2:29.440      86077484 B   cxx   --   ---xx   flac  0.6571  gd1980-08-21s1t05.flac
     5:50.493     201884204 B   cxx   --   ---xx   flac  0.6532  gd1980-08-21s1t06.flac
     6:37.670     229057688 B   cxx   --   ---xx   flac  0.6458  gd1980-08-21s1t07.flac
     9:59.160     345116204 B   cxx   --   ---xx   flac  0.6502  gd1980-08-21s1t08.flac
     5:46.173     199395884 B   cxx   --   ---xx   flac  0.6382  gd1980-08-21s1t09.flac
    11:24.840     394467884 B   cxx   --   ---xx   flac  0.6538  gd1980-08-21s1t10.flac
     4:13.913     146253998 B   cxx   --   ---xx   flac  0.6627  gd1980-08-21s1t11.flac
     6:27.640     223280684 B   cxx   --   ---xx   flac  0.6280  gd1980-08-21s2t01.flac
    13:38.827     471644204 B   cxx   --   ---xx   flac  0.6505  gd1980-08-21s2t02.flac
     7:23.133     255244844 B   cxx   --   ---xx   flac  0.6560  gd1980-08-21s2t03.flac
     7:09.720     247518764 B   cxx   --   ---xx   flac  0.6471  gd1980-08-21s2t04.flac
     6:30.125     224711942 B   cxx   --   ---xx   flac  0.6405  gd1980-08-21s2t05.flac
     5:34.773     192829484 B   cxx   --   ---xx   flac  0.6443  gd1980-08-21s2t06.flac
     2:41.280      92897324 B   cxx   --   ---xx   flac  0.6476  gd1980-08-21s2t07.flac
     8:58.293     310057004 B   cxx   --   ---xx   flac  0.6589  gd1980-08-21s2t08.flac
     5:23.689     186444818 B   cxx   --   ---xx   flac  0.6625  gd1980-08-21s2t09.flac
   135:18.743    4676396830 B                            0.6491  (20 files)

No errors occured.



Show Checksums
ffp
gd1980-08-21s1t01.flac:afbb6a625385fb996770ded1303e3588
gd1980-08-21s1t02.flac:71f5454502c730e9ce04e96cc43895f6
gd1980-08-21s1t03.flac:e2641f23a4fbfeaa2e308ec3863e717e
gd1980-08-21s1t04.flac:5fb85358bd8ab7a2929b69eab2a6bbfe
gd1980-08-21s1t05.flac:12e4f214030f07d904ba24513e642e0f
gd1980-08-21s1t06.flac:0f4024ab16ede6441a4802e32c8baaec
gd1980-08-21s1t07.flac:c4c30b1d9195c77a792c878cfa06e2f8
gd1980-08-21s1t08.flac:1206fc0a9a6c277f6f7919d491d6c59f
gd1980-08-21s1t09.flac:cb9485dc8ce8d213ed1ab19f977a0d03
gd1980-08-21s1t10.flac:5ac5a89434b97167b30ce9110b3cdf68
gd1980-08-21s1t11.flac:b598081aad89c362e5fe8b59abfdbe86
gd1980-08-21s2t01.flac:44cfcd50a82e1990c36db48526329bbc
gd1980-08-21s2t02.flac:f39e78398242846b36168fd947817688
gd1980-08-21s2t03.flac:37467f3ac6340f89552b950c6f492efa
gd1980-08-21s2t04.flac:f46dc89d5d58dba324604462ba6ddf33
gd1980-08-21s2t05.flac:45f2f7daa03b37b11338c9f6de617698
gd1980-08-21s2t06.flac:111dcb78dac43b7eaf733664745b82e9
gd1980-08-21s2t07.flac:65ca7324fe3cf6b5fcdb45516ee48c82
gd1980-08-21s2t08.flac:0bffc60d53cba3d63796781ff92aa2cf
gd1980-08-21s2t09.flac:4daf41cc920ed3830522cb89daa85d32
flac-md5
108f8eb4e9252da963539c007e6681b8 *gd1980-08-21s1t01.flac
6d279cadc91155362337a15144092dff *gd1980-08-21s1t02.flac
bb359ac768c772920e097db064a10f8f *gd1980-08-21s1t03.flac
326669e3f1c5dd5c75f6b7ce5fb88aaf *gd1980-08-21s1t04.flac
1f8037da0d02277d6d706619d1694243 *gd1980-08-21s1t05.flac
c195762e06c05e60911e409985d2669b *gd1980-08-21s1t06.flac
cc0a2066261bb63879b9c6d167cd7515 *gd1980-08-21s1t07.flac
ba1da82c6f030af2e400a414dad5f4e4 *gd1980-08-21s1t08.flac
5c09536f5a1deaa63918ef6d39a99653 *gd1980-08-21s1t09.flac
59b19f94f8974c2d3c5494ff3d005fc5 *gd1980-08-21s1t10.flac
09ec89cba9983492f6dfaa36cab94728 *gd1980-08-21s1t11.flac
3a2605fe0ba5595887817bd049cb3b5e *gd1980-08-21s2t01.flac
e3820b4f834137a26b7fa72e0e99d2cd *gd1980-08-21s2t02.flac
b86932e37ed1af2482d0fd95d546ff39 *gd1980-08-21s2t03.flac
a5c57b5347c89a78c6e1ac984012f126 *gd1980-08-21s2t04.flac
d2f224cc615fb988e31ac9da263095e9 *gd1980-08-21s2t05.flac
157596faba878dc5b83b12ac5d23b69a *gd1980-08-21s2t06.flac
b8aed2254f209d32112c5bcc2bc21345 *gd1980-08-21s2t07.flac
41264a00a129b8a9cbab80c0b29839dc *gd1980-08-21s2t08.flac
8cd949e378d1ac9dc269aefc5c59cd44 *gd1980-08-21s2t09.flac

Comments
Add Comment
Other Sources (comments)
SBD>MC>C>DAT>CD; via Scott... (0) flac16; Recording... (0) flac16; AUD: 2 AKG... (0) flac16; Recorded By... (0)
Date User Comment