Browse Collections Artists Sources   Search Dates

Add Show    List Management    Help


Grateful Dead 08/21/80
Uptown Theater, Chicago, IL
Comments Add Comment    Source Collectors    Add to Collection    Add to Want List    History
Source # 126369 Other Sources
Entered by Matt Vernon
Checksums ffp , flac-md5
Disc Counts 0 / 0
Media Size Compressed: 787.56 MB (825815040 bytes)
Uncompressed: 1.33 GB (1432147792 bytes)
Date Circulated
Date Added
12/22/2013
12/22/2013
Source Summary flac16; AUD: 2 AKG D222E + 1 Beyer M160 > Nakamichi 550, Orch 20th row right center. Transfer: MAC > Nakamichi 1000-II > Sound Devices USB Pre-2 > WAV 2496. Edits: WAV 2496 > Wavelab > R8Brain > CD-Wave > TLH > FLAC 1644 tagged. Concert recording & transfer by Richie Stankiewicz, edits by Andrew F. 12/2013 
  Archive
Source Information - Download Text | Download Zip
GRATEFUL DEAD
Uptown Theatre
Chicago IL
08-21-1980

16bit/44.1kHz file-set

s1t01 crowd
s1t02 Cold Rain & Snow >
s1t03 Minglewood Blues
s1t04 High Time
s1t05 Mama Tried >
s1t06 Mexicali Blues
s1t07 Peggy-O
s1t08 It's All Over Now
s1t09 Easy to Love You
s1t10 Shakedown Street >
s1t11 Promised Land

s2t01 Drums >
s2t02 Uncle John's Band >
s2t03 Truckin' >
s2t04 The Other One >
s2t05 Drum//s >
s2t06 The Wheel >
s2t07 Uncle John's Band Reprise >
s2t08 Sugar Magnolia
s2t09 Encore: Alabama Getaway

AUD: 2 AKG D222E + 1 Beyer M160 > Nakamichi 550, Orch 20th row right center.

Transfer: MAC > Nakamichi 1000-II > Sound Devices USB Pre-2 > WAV 2496.

Edits: WAV 2496 > Wavelab > R8Brain > CD-Wave > TLH > FLAC 1644 tagged.

Concert recording & transfer by Richie Stankiewicz, edits by Andrew F. 12/2013

Note: Tape flip near end of Drums, one-second crossfade at 5:52.

    length     expanded size    cdr  WAVE problems  fmt   ratio  filename
     0:44.22        7813388 B   ---   --   ---xx   flac  0.5262  gd1980-08-21s1t01.flac
     6:13.68       65957180 B   ---   --   ---xx   flac  0.5885  gd1980-08-21s1t02.flac
     8:57.60       94867964 B   ---   --   ---xx   flac  0.5832  gd1980-08-21s1t03.flac
     9:13.43       97650380 B   ---   --   ---xx   flac  0.5613  gd1980-08-21s1t04.flac
     2:29.33       26361260 B   ---   --   ---xx   flac  0.5945  gd1980-08-21s1t05.flac
     5:50.36       61824716 B   ---   --   ---xx   flac  0.5869  gd1980-08-21s1t06.flac
     6:37.51       70150796 B   ---   --   ---xx   flac  0.5641  gd1980-08-21s1t07.flac
     9:59.12      105691868 B   ---   --   ---xx   flac  0.5857  gd1980-08-21s1t08.flac
     5:46.14       61067372 B   ---   --   ---xx   flac  0.5544  gd1980-08-21s1t09.flac
    11:24.62      120803468 B   ---   --   ---xx   flac  0.5845  gd1980-08-21s1t10.flac
     4:13.68       44789180 B   ---   --   ---xx   flac  0.6104  gd1980-08-21s1t11.flac
     6:27.48       68379740 B   ---   --   ---xx   flac  0.5195  gd1980-08-21s2t01.flac
    13:38.62      144441068 B   ---   --   ---xx   flac  0.5741  gd1980-08-21s2t02.flac
     7:23.10       78168764 B   ---   --   ---xx   flac  0.5939  gd1980-08-21s2t03.flac
     7:09.54       75802652 B   ---   --   ---xx   flac  0.5700  gd1980-08-21s2t04.flac
     6:30.10       68819564 B   ---   --   ---xx   flac  0.5495  gd1980-08-21s2t05.flac
     5:34.57       59051708 B   ---   --   ---xx   flac  0.5620  gd1980-08-21s2t06.flac
     2:41.22       28452188 B   ---   --   ---xx   flac  0.5754  gd1980-08-21s2t07.flac
     8:58.22       94954988 B   ---   --   ---xx   flac  0.6053  gd1980-08-21s2t08.flac
     5:23.52       57099548 B   ---   --   ---xx   flac  0.6042  gd1980-08-21s2t09.flac
   135:18.56     1432147792 B                            0.5766  (20 files)

No errors occured.



Show Checksums
ffp
gd1980-08-21s1t01.flac:29d4d215df4c8f4bb90cd58d8ea6ed27
gd1980-08-21s1t02.flac:5f57437603f40c886946781719ebf0fc
gd1980-08-21s1t03.flac:1ee2d15543eae65a5b0ca35f85d46770
gd1980-08-21s1t04.flac:c01fce284dcde638e5ac9146e3297bca
gd1980-08-21s1t05.flac:489b595d4ef2f6fe936700ca1179715d
gd1980-08-21s1t06.flac:4506136d26f5f0b7edd07425999b7647
gd1980-08-21s1t07.flac:9736e09fa0971ca2ed7f9ea75c3d5dc4
gd1980-08-21s1t08.flac:6ae9ac9165311ffaa59d1e670f2a488f
gd1980-08-21s1t09.flac:d06c7b0ebcbc87ecff60847d4b9d0da8
gd1980-08-21s1t10.flac:5e3c669621d23b26b85a434c48dc6a96
gd1980-08-21s1t11.flac:3a8b3842ad0b535bd6412ed07b0fa58a
gd1980-08-21s2t01.flac:1e82ef71215fec2bca3019adf252b429
gd1980-08-21s2t02.flac:27e46fd77753c5b5f14ed7e4b16bdb20
gd1980-08-21s2t03.flac:5a2ad91b25f07adda4ebb71ed65d5561
gd1980-08-21s2t04.flac:5fcc82f1bfd022624de45643d05e1b62
gd1980-08-21s2t05.flac:d67c9d0b50df48cd9036216d93662348
gd1980-08-21s2t06.flac:b16af8f7fc40a01806de4d6b013f130b
gd1980-08-21s2t07.flac:5e697fcf4f380e56e8cb6250ca7b1cc4
gd1980-08-21s2t08.flac:06c990ac92c5ddd44cee1fcce50c30ec
gd1980-08-21s2t09.flac:fe8527f7584287074d67bad39d6bc289
flac-md5
eab1924c0fc9ee189cb5b995775b8512 *gd1980-08-21s1t01.flac
d0aedd49a1547980c119164ab5f7bd4a *gd1980-08-21s1t02.flac
9dc771f456b1804eeef1d09972e3755d *gd1980-08-21s1t03.flac
21c3721b9ac9265b9b88611a7be1b724 *gd1980-08-21s1t04.flac
135ef022049a5d4e7d9254ccbb91124e *gd1980-08-21s1t05.flac
0a3b048764c041300d9e152879465f94 *gd1980-08-21s1t06.flac
8d912c02f9253e952ac4048b9707887c *gd1980-08-21s1t07.flac
b999204d6744b37be5fbff5bea41fbd3 *gd1980-08-21s1t08.flac
90aea123a4009ea4b4a258c1fea7755f *gd1980-08-21s1t09.flac
a983968d1c00fbc02b744e363c9afbf6 *gd1980-08-21s1t10.flac
7d11a54bf7bd1ef0b12735104b0f348d *gd1980-08-21s1t11.flac
5218d7c520952942b0807cb22f3166fc *gd1980-08-21s2t01.flac
f0a0ae2bb996a4cb79543de0f5ded870 *gd1980-08-21s2t02.flac
62fd1fb4f4e303ea4c11191b7513a475 *gd1980-08-21s2t03.flac
edcd2cf02c985dea9733aa73b58ea282 *gd1980-08-21s2t04.flac
58715e3e6dfd24666d3d7da7be178a9d *gd1980-08-21s2t05.flac
1c7afecebba73b5f570781d391c2f2f8 *gd1980-08-21s2t06.flac
e5d0c340ba323ad410143ef4f6f179d0 *gd1980-08-21s2t07.flac
23dacc1880c650b149461e231874eaa9 *gd1980-08-21s2t08.flac
42e9875d6d994531dbf792c699cdb675 *gd1980-08-21s2t09.flac

Comments
Add Comment
Other Sources (comments)
SBD>MC>C>DAT>CD; via Scott... (0) flac16; Recording... (0) flac24; AUD: 2 AKG... (0) flac16; Recorded By... (0)
Date User Comment