Browse Collections Artists Sources   Search Dates

Add Show    List Management    Help


Grateful Dead 10/06/81
Rainbow Theater, London, England
Comments Add Comment    Source Collectors    Add to Collection    Add to Want List    History
Source # 126571 Other Sources
Entered by Matt Vernon
Checksums flac-md5 , ffp
Disc Counts 0 / 0
Media Size Compressed: 2.02 GB (2166779904 bytes)
Uncompressed: 3.19 GB (3428778714 bytes)
Date Circulated
Date Added
01/02/2014
01/02/2014
Source Summary flac24; AUD 2nd Set Only: 2x Beyer M-88 > Sony TC-D5, taped from the orchestra (stalls) section. Transfer: MAC > Sony TC-KA3ES > Sound Devices USB Pre-2 > WAV 2496. Edits: WAV 2496 > Wavelab > CD-Wave (24bit output) > TLH > FLAC 2496 tagged. Concert recording & transfer by Richie Stankiewicz, edits by Andrew F. 01/2014. 
  Archive
Source Information - Download Text | Download Zip
GRATEFUL DEAD
Rainbow Theatre
London UK
10-06-1981
2nd Set

24bit/96kHz file-set

s2t01 Women Are Smarter
s2t02 High Time
s2t03 Estimated Prophet >
s2t04 He's Gone >
s2t05 Drums//
s2t06 Space >
s2t07 The Wheel >
s2t08 Sugar Magnolia >
s2t09 Stella Blue >
s2t10 Good Lovin'
s2t11 Encore: Sunshine Daydream >
s2t12 Encore: Brokedown Palace

AUD: 2x Beyer M-88 > Sony TC-D5, taped from the orchestra (stalls) section.

Transfer: MAC > Sony TC-KA3ES > Sound Devices USB Pre-2 > WAV 2496.

Edits: WAV 2496 > Wavelab > CD-Wave (24bit output) > TLH > FLAC 2496 tagged.

Concert recording & transfer by Richie Stankiewicz, edits by Andrew F. 01/2014.

Note: Drums cuts early, about eight minutes missing. 1st Set tape is lost :(

    length     expanded size    cdr  WAVE problems  fmt   ratio  filename
     6:40.587     230737964 B   cxx   --   ---xx   flac  0.6359  gd1981-10-06s2t01.flac
    10:07.240     349770284 B   cxx   --   ---xx   flac  0.6290  gd1981-10-06s2t02.flac
    13:46.627     476137004 B   cxx   --   ---xx   flac  0.6417  gd1981-10-06s2t03.flac
    14:46.093     510389804 B   cxx   --   ---xx   flac  0.6343  gd1981-10-06s2t04.flac
     1:48.831      62686898 B   cxx   --   ---xx   flac  0.6328  gd1981-10-06s2t05.flac
    11:29.267     397017644 B   cxx   --   ---xx   flac  0.6172  gd1981-10-06s2t06.flac
     7:37.907     263754284 B   cxx   --   ---xx   flac  0.6355  gd1981-10-06s2t07.flac
     4:56.440     170749484 B   cxx   --   ---xx   flac  0.6512  gd1981-10-06s2t08.flac
     9:52.453     341253164 B   cxx   --   ---xx   flac  0.6223  gd1981-10-06s2t09.flac
     8:55.600     308505644 B   cxx   --   ---xx   flac  0.6471  gd1981-10-06s2t10.flac
     2:39.693      91983404 B   cxx   --   ---xx   flac  0.6322  gd1981-10-06s2t11.flac
     6:32.002     225793136 B   cxx   --   ---xx   flac  0.6072  gd1981-10-06s2t12.flac
    99:12.740    3428778714 B                            0.6319  (12 files)

No errors occured.



Show Checksums
flac-md5
1475afa8d0bfb96654e231705a255f77 *gd1981-10-06s2t01.flac
64733dfa2fed51beb0f880999bc45521 *gd1981-10-06s2t02.flac
040b19c701139c9333cfc343deab11a5 *gd1981-10-06s2t03.flac
459e22a23d30237332a38b2178ec33d7 *gd1981-10-06s2t04.flac
cd11f42c91c0d44a991ba0a1436a62d5 *gd1981-10-06s2t05.flac
c0b1ee849f941fe86cc2b15bbab3d8ee *gd1981-10-06s2t06.flac
c236c3a9f185591dfa795fd8d27b853b *gd1981-10-06s2t07.flac
041c94dfbb1f1f1308ed8fe7d7fbc8e3 *gd1981-10-06s2t08.flac
a22f5733217d5db39ee1bb4e6eecaa41 *gd1981-10-06s2t09.flac
e73a16de1cc9e725e22787668695948b *gd1981-10-06s2t10.flac
98b755742e77cbfcf98821acd9129156 *gd1981-10-06s2t11.flac
8d458f94c132fc07f9fc29bab685deb6 *gd1981-10-06s2t12.flac
ffp
gd1981-10-06s2t01.flac:a7fe62ebda8bbcec90d539a537d78e6c
gd1981-10-06s2t02.flac:a1f3221fe09b3133fe30524d43b1ff2c
gd1981-10-06s2t03.flac:748d7101e26ef439b6503bb5615d90a7
gd1981-10-06s2t04.flac:c7c73a0d21eac352e1a4075301f57854
gd1981-10-06s2t05.flac:2317a1cacf8883fa0387de1b7d142ff2
gd1981-10-06s2t06.flac:186ad419327dc67dd1853d2d450cc4e7
gd1981-10-06s2t07.flac:7eb92ebd524a2af15779a408df36d4a1
gd1981-10-06s2t08.flac:c5ba181306e7f3e334af887ee33f9fa1
gd1981-10-06s2t09.flac:fb41903813a5a2bcec2c9e317879f364
gd1981-10-06s2t10.flac:b3c076115e94af7b2b13f18ced4fe99a
gd1981-10-06s2t11.flac:2077684402908305858767dc9f5f8b00
gd1981-10-06s2t12.flac:98b3b98761bec9818235e75eb9035ca2

Comments
Add Comment
Other Sources (comments)
Master Soundboard Cassette... (4) flac16; Recording... (1) flac16; AUD 2nd Set... (1) flac16; Recording... (0) flac16; Soundboard;... (0) flac16; Audience... (0) flac24; Audience... (1) flac/176.4kHz;... (0)
Date User Comment