Browse Collections Artists Sources   Search Dates

Add Show    List Management    Help


Grateful Dead 10/06/81
Rainbow Theater, London, England
Comments Add Comment    Source Collectors    Add to Collection    Add to Want List    History
Source # 126572 Other Sources
Entered by Matt Vernon
Checksums flac-md5 , ffp
Disc Counts 0 / 0
Media Size Compressed: 561.81 MB (589099008 bytes)
Uncompressed: 0.98 GB (1050065040 bytes)
Date Circulated
Date Added
01/02/2014
01/02/2014
Source Summary flac16; AUD 2nd Set Only: 2x Beyer M-88 > Sony TC-D5, taped from the orchestra (stalls) section. Transfer: MAC > Sony TC-KA3ES > Sound Devices USB Pre-2 > WAV 2496. Edits: WAV 2496 > Wavelab > R8Brain > CD-Wave > TLH > FLAC 1644 tagged. Concert recording & transfer by Richie Stankiewicz, edits by Andrew F. 01/2014. 
  Archive
Source Information - Download Text | Download Zip
GRATEFUL DEAD
Rainbow Theatre
London UK
10-06-1981
2nd Set

16bit/44.1kHz file-set

s2t01 Women Are Smarter
s2t02 High Time
s2t03 Estimated Prophet >
s2t04 He's Gone >
s2t05 Drums//
s2t06 Space >
s2t07 The Wheel >
s2t08 Sugar Magnolia >
s2t09 Stella Blue >
s2t10 Good Lovin'
s2t11 Encore: Sunshine Daydream >
s2t12 Encore: Brokedown Palace

AUD: 2x Beyer M-88 > Sony TC-D5, taped from the orchestra (stalls) section.

Transfer: MAC > Sony TC-KA3ES > Sound Devices USB Pre-2 > WAV 2496.

Edits: WAV 2496 > Wavelab > R8Brain > CD-Wave > TLH > FLAC 1644 tagged.

Concert recording & transfer by Richie Stankiewicz, edits by Andrew F. 01/2014.

Note: Drums cuts early, about eight minutes missing. 1st Set tape is lost :(

    length     expanded size    cdr  WAVE problems  fmt   ratio  filename
     6:40.44       70663532 B   ---   --   ---xx   flac  0.5772  gd1981-10-06s2t01.flac
    10:07.17      107114828 B   ---   --   ---xx   flac  0.5483  gd1981-10-06s2t02.flac
    13:46.48      145819340 B   ---   --   ---xx   flac  0.5857  gd1981-10-06s2t03.flac
    14:46.07      156306908 B   ---   --   ---xx   flac  0.5685  gd1981-10-06s2t04.flac
     1:48.62       19197068 B   ---   --   ---xx   flac  0.5761  gd1981-10-06s2t05.flac
    11:29.20      121586684 B   ---   --   ---xx   flac  0.5078  gd1981-10-06s2t06.flac
     7:37.68       80774780 B   ---   --   ---xx   flac  0.5595  gd1981-10-06s2t07.flac
     4:56.33       52292060 B   ---   --   ---xx   flac  0.6029  gd1981-10-06s2t08.flac
     9:52.35      104511164 B   ---   --   ---xx   flac  0.5285  gd1981-10-06s2t09.flac
     8:55.45       94479884 B   ---   --   ---xx   flac  0.6042  gd1981-10-06s2t10.flac
     2:39.51       28167596 B   ---   --   ---xx   flac  0.5935  gd1981-10-06s2t11.flac
     6:32.01       69151196 B   ---   --   ---xx   flac  0.5309  gd1981-10-06s2t12.flac
    99:12.56     1050065040 B                            0.5610  (12 files)

No errors occured.



Show Checksums
flac-md5
c7f227152b59faec7c54dd6b93c979f8 *gd1981-10-06s2t01.flac
6b3bb1b5e87a42b7690a34c19bcab2f6 *gd1981-10-06s2t02.flac
0746d8b539a11cbf24dcca5ea2b070f5 *gd1981-10-06s2t03.flac
90725b212bff1ac608fbdcc1e68af380 *gd1981-10-06s2t04.flac
1aa164b21e2157bc9d9004bd2923d858 *gd1981-10-06s2t05.flac
ecff9f539ca7177b01b11dbe8084e968 *gd1981-10-06s2t06.flac
c139183231abd995313bd9f30dfbe39a *gd1981-10-06s2t07.flac
1201aebbcdb0394abf3e64d584292c1e *gd1981-10-06s2t08.flac
f3e822c4568e796024d3267865d3a8a4 *gd1981-10-06s2t09.flac
a63bf3a9c638cd624292d07f036abaec *gd1981-10-06s2t10.flac
c5c093e38bb6632eda9e87fc0677bebf *gd1981-10-06s2t11.flac
c6c306b4992b63503294e88d489d89e9 *gd1981-10-06s2t12.flac
ffp
gd1981-10-06s2t01.flac:cc3037647dc6d0c5d29c8eab16c16105
gd1981-10-06s2t02.flac:141035b589ca77ba08688a7d33482cab
gd1981-10-06s2t03.flac:b29c4d9bcdbcf095724d71144e6ce2b8
gd1981-10-06s2t04.flac:db1fe74f9cf7303990afea40cc8df82d
gd1981-10-06s2t05.flac:aa916eda9b4ebbbd28eb1f6674b90215
gd1981-10-06s2t06.flac:dc9c08855c3d0810fcad7d70334b8162
gd1981-10-06s2t07.flac:02a849eddea4e155347ab94f0814e8dc
gd1981-10-06s2t08.flac:0b9699bc1d8935087444bc273cb4596a
gd1981-10-06s2t09.flac:1348e4fe3751d758d6eb0d269eb5162d
gd1981-10-06s2t10.flac:e7a8dab635cc1a0c51b1e0720c8d4be3
gd1981-10-06s2t11.flac:e1a60dff40473e6b53cddd4acdd9d40f
gd1981-10-06s2t12.flac:fdaa0430e4491baee8ab14d685dc3bd1

Comments
Add Comment
Other Sources (comments)
Master Soundboard Cassette... (4) flac16; Recording... (1) flac24; AUD 2nd Set... (0) flac16; Recording... (0) flac16; Soundboard;... (0) flac16; Audience... (0) flac24; Audience... (1) flac/176.4kHz;... (0)
Date User Comment
03/11/2014 nfagdtrfb This source has material to patch the four cuts in the SBD 2nd set, if someone wants to take on that project...

1. High Time, aprx 16 seconds starting at "Tomorrow comes trouble" on 3303-Polgar (crossfaded on 103627-Miller)
2. Space, aprx 32 seconds starting at 3:05 on 103627-Miller (about three and a half minutes needed for 3303-Polgar)
3. Sunshine Daydream, start of track, about 8 seconds can be added.
4. Brokedown Palace, end of track, about 55 seconds can be added.