Browse Collections Artists Sources   Search Dates

Add Show    List Management    Help


Grateful Dead 05/14/80
Nassau Coliseum, Uniondale, NY
Comments Add Comment    Source Collectors    Add to Collection    Add to Want List    History
Source # 126608 Other Sources
Entered by Matt Vernon
Checksums flac-md5 , ffp
Disc Counts 0 / 0
Media Size Compressed: 912.68 MB (957019472 bytes)
Uncompressed: 1.55 GB (1662935660 bytes)
Date Circulated
Date Added
01/03/2014
01/03/2014
Source Summary flac16; 2 source matrix by dusborne; Soundboard (shnid:3295) Master Soundboard Cassette > Reel to Reel > DAT > CDR; CD Mastering by Scott Clugston and Audience (shnid:125962) Recording by Jim Wise: Master Audience Cassette 2 Nakamichi 700's with 1 Nakamichi 300 Blend> Nak 550> Sony D-5 at the SBD; Transfer and FLAC encoding by David Minches 
  Archive
Source Information - Download Text | Download Zip
Grateful Dead
May 14, 1980
Nassau Veterans Memorial Coliseum
Uniondale, NY

2 source matrix

Soundboard (shnid:3295)
--------------------------------------------------------------------------------
gd80-05-14.sbd.clugston.3295.sbeok.flac16

Master Soundboard Cassette > Reel to Reel > DAT > CDR

CD Mastering by Scott Clugston
EAC'ed / SHN'ed by Scott Clugston
02/25/01

Flac encoding notes:
All processing with Traders Little Helper
Shn - st5 generated
Shn > Wav > Flac (level 8)
Flac st5 generated and matched to Shn st5

B. Proctor 7-19-09


Audience (shnid:125962)
--------------------------------------------------------------------------------
gd1980-05-14.125962.naks.wise.minches.flac2496

Recording by Jim Wise:
Master Audience Cassette

2 Nakamichi 700's with 1 Nakamichi 300 Blend> Nak 550> Sony D-5 at the SBD

Transfer and FLAC encoding by David Minches:
October 25 2013

Master played back on:
Nakamichi Dragon > Korg MR-1000(DSF [1-bit 5.6448 MHz Stereo]) Korg AudioGate >
WAV [24/96] > Adobe Audition 3.0 > FLAC encoding

- Comes A Time patched with Glassberg master
--------------------------------------------------------------------------------
---Thank You Scott Clugston for your work on the SBD.
---Thank you Jim Wise for recording the show.
---Thank you Barry Glassberg for recording the show.
---Thank you David Minches for your AUD. transfer.
---Thank you XJ32 for the art work.
---Thank you Germain for your advice, encouragement, guidance and seeding.

Matrix by dusborne

01-01-2014
--------------------------------------------------------------------------------

Set 1

101 - gd80-05-14s1t01 - Tuning
102 - gd80-05-14s1t02 - Alabama Getaway ->
103 - gd80-05-14s1t03 - Promised Land
104 - gd80-05-14s1t04 - Candyman
105 - gd80-05-14s1t05 - Mexicali Blues ->
106 - gd80-05-14s1t06 - El Paso
107 - gd80-05-14s1t07 - Tennessee Jed
108 - gd80-05-14s1t08 - Let It Grow ->
109 - gd80-05-14s1t09 - Althea
110 - gd80-05-14s1t10 - Easy To Love You
111 - gd80-05-14s1t11 - The Music Never Stopped

Set 2

201 - gd80-05-14s2t01 - Tuning
202 - gd80-05-14s2t02 - Feel Like A Stranger ->
203 - gd80-05-14s2t03 - Sugaree ->
204 - gd80-05-14s2t04 - Lost Sailor ->
205 - gd80-05-14s2t05 - St. of Circumstance ->
206 - gd80-05-14s2t06 - Jam ->
207 - gd80-05-14s2t07 - Comes A Time ->
208 - gd80-05-14s2t08 - The Other One ->
209 - gd80-05-14s2t09 - Drums ->
210 - gd80-05-14s2t10 - Space ->
211 - gd80-05-14s2t11 - Black  Peter ->
212 - gd80-05-14s2t12 - Around & Around ->
213 - gd80-05-14s2t13 - Johnny B. Goode

Encore
214 - gd80-05-14s2t14 - Don't Ease Me In *Audience Only

--------------------------------------------------------------------------------

Tagging notes:
Show information is embedded within the header
of each flac file. It will display on any player
capable of directly playing flac files.
If converted to wav during processing, all tags
will be stripped, however audio data will remain
unaffected. If you must transcode to a lossy format,
do so directly Flac > Lossy.
Use st5 to validate audio integrity.
Md5 values will change if tagging is altered.

Dave Usborne 01-01-2014
--------------------------------------------------------------------------------

length     expanded size    cdr  WAVE problems  fmt   ratio  filename
     0:16.44        2925932 B   ---   --   ---xx   flac  0.5865  gd80-05-14s1t01.flac
     4:10.08       44118860 B   ---   --   ---xx   flac  0.5946  gd80-05-14s1t02.flac
     5:36.56       59402156 B   ---   --   ---xx   flac  0.5917  gd80-05-14s1t03.flac
     8:47.35       93045164 B   ---   --   ---xx   flac  0.5723  gd80-05-14s1t04.flac
     4:32.28       48046700 B   ---   --   ---xx   flac  0.5822  gd80-05-14s1t05.flac
     4:59.00       52743644 B   ---   --   ---xx   flac  0.5745  gd80-05-14s1t06.flac
    10:56.15      115753724 B   ---   --   ---xx   flac  0.5821  gd80-05-14s1t07.flac
     8:59.53       95204300 B   ---   --   ---xx   flac  0.5802  gd80-05-14s1t08.flac
     9:57.09      105332012 B   ---   --   ---xx   flac  0.5722  gd80-05-14s1t09.flac
     3:48.66       40374476 B   ---   --   ---xx   flac  0.5817  gd80-05-14s1t10.flac
     7:50.35       82990364 B   ---   --   ---xx   flac  0.5858  gd80-05-14s1t11.flac
     3:04.61       32601116 B   ---   --   ---xx   flac  0.6084  gd80-05-14s2t01.flac
     7:59.29       84563852 B   ---   --   ---xx   flac  0.5712  gd80-05-14s2t02.flac
    11:17.33      119500460 B   ---   --   ---xx   flac  0.5625  gd80-05-14s2t03.flac
     6:18.18       66721580 B   ---   --   ---xx   flac  0.5550  gd80-05-14s2t04.flac
     5:58.59       63290012 B   ---   --   ---xx   flac  0.5810  gd80-05-14s2t05.flac
     2:52.07       30357308 B   ---   --   ---xx   flac  0.5716  gd80-05-14s2t06.flac
     9:32.68      101060780 B   ---   --   ---xx   flac  0.5616  gd80-05-14s2t07.flac
     6:34.40       69595724 B   ---   --   ---xx   flac  0.5815  gd80-05-14s2t08.flac
     8:29.36       89872316 B   ---   --   ---xx   flac  0.5725  gd80-05-14s2t09.flac
     3:27.28       36580700 B   ---   --   ---xx   flac  0.5133  gd80-05-14s2t10.flac
     9:16.13       98109020 B   ---   --   ---xx   flac  0.5672  gd80-05-14s2t11.flac
     3:58.23       42037340 B   ---   --   ---xx   flac  0.5729  gd80-05-14s2t12.flac
     4:46.44       50553932 B   ---   --   ---xx   flac  0.5887  gd80-05-14s2t13.flac
     3:36.22       38154188 B   ---   --   ---xx   flac  0.6285  gd80-05-14s2t14.flac
   157:07.05     1662935660 B                            0.5755  (25 files)


Show Checksums
flac-md5
7d3e72f8d6e04058ffc7d00c38ff754d *gd80-05-14s1t01.flac
cfcc5b34a781f28aac48d5efcddac319 *gd80-05-14s1t02.flac
4905ce4e28a17715b5d00b9f3428b4e9 *gd80-05-14s1t03.flac
ca395639f803946fd02e6f363fd0bc67 *gd80-05-14s1t04.flac
c4115a2f046bfc5eb4d566e89883be24 *gd80-05-14s1t05.flac
7ccca20f431ba23db1c035695d9af216 *gd80-05-14s1t06.flac
f88e6bef1c7f150d5bf527d4a3bfc80b *gd80-05-14s1t07.flac
0839f48eb09568f4cce858b0a00e99c2 *gd80-05-14s1t08.flac
82a6f9b636c4cbc4aa9ca427ed1003b3 *gd80-05-14s1t09.flac
7cb0dbd7ecbae51f8f8df92e6d808e78 *gd80-05-14s1t10.flac
7cd883cb190e48b7ce831f11b09154a6 *gd80-05-14s1t11.flac
ab348e56fa279b7de16a9af5c225132a *gd80-05-14s2t01.flac
624d556fe0a2d18b1cdd995a86a78da3 *gd80-05-14s2t02.flac
63db439359f3b4e30e83d052027bd075 *gd80-05-14s2t03.flac
dd9ec6173470cc05ffede23f3f5ef4a9 *gd80-05-14s2t04.flac
032a47b3039fe0c4b67e7ff0c1847485 *gd80-05-14s2t05.flac
ed1d702be860d0e4dcaf5a868acff7ce *gd80-05-14s2t06.flac
e1bf2d911bcf2dc8a6e9bf1e6f9512c3 *gd80-05-14s2t07.flac
c73f07084df7cdec12ab6f8e4242b718 *gd80-05-14s2t08.flac
f64b3bf54559906bcb3a31f308bd85d6 *gd80-05-14s2t09.flac
751e578a282d701524c8ea137ac1a215 *gd80-05-14s2t10.flac
ce94323d0a6ac775fc4b309ef0b240b7 *gd80-05-14s2t11.flac
63f7525428e2667092c3672fc6154756 *gd80-05-14s2t12.flac
d537a8db85e8d63c5a18d911da2e19f6 *gd80-05-14s2t13.flac
dbf28ddd0f6b122d9c0eed6136e54555 *gd80-05-14s2t14.flac
ffp
gd80-05-14s1t01.flac:5476b41df7f01a8c42e0e471483dc631
gd80-05-14s1t02.flac:06c16e2b8ce40d2472385bb6b6593dc8
gd80-05-14s1t03.flac:20b268e242ebbb9d7e07ba3b0c68e80f
gd80-05-14s1t04.flac:b2110d226efed2ca37dee88deed78beb
gd80-05-14s1t05.flac:e61154793cdd5918675ea54e9f41d672
gd80-05-14s1t06.flac:279565bb427209b4b1cc06fb7f3df3b3
gd80-05-14s1t07.flac:6d98f1d2aee60155a33ab195f7111b0a
gd80-05-14s1t08.flac:020509b4ffa666c1db0f5cec579f19be
gd80-05-14s1t09.flac:53f57be9dc72a8dbe122f1fa9053c52e
gd80-05-14s1t10.flac:4a2ca052b77c04b70a070b4545fba1d6
gd80-05-14s1t11.flac:8fc424afa2ec304fc497a915b1142009
gd80-05-14s2t01.flac:d36e7a8bae255f8760010e22b6d265b2
gd80-05-14s2t02.flac:c786c8912787f1c064a8b10464798380
gd80-05-14s2t03.flac:4f8e6941b793cece6c3ae685735e129f
gd80-05-14s2t04.flac:8b878aa8cc73c6b5bcf4074c2d87e4b8
gd80-05-14s2t05.flac:36283eb2f9cf49589ff7cdec9f57f551
gd80-05-14s2t06.flac:2194eccec3f2430478db03b9955ea16f
gd80-05-14s2t07.flac:9c2c557c4e245f1536048f4b577a887a
gd80-05-14s2t08.flac:7458ad762365b6fac8204510c0b87059
gd80-05-14s2t09.flac:1b10d75473812a7d3c4c63651ac2e08b
gd80-05-14s2t10.flac:692601f7a80ae4d4bb53937a50c4af14
gd80-05-14s2t11.flac:3c71b3ef882a6c96e3a9e057fd8e5097
gd80-05-14s2t12.flac:97d0503e95e487d87ddd44f06a591c5d
gd80-05-14s2t13.flac:3798a659bed18773d26fcb920337704c
gd80-05-14s2t14.flac:8de49a4741cc5a0ec6a225d59ef059d8

Comments
Add Comment
Other Sources (comments)
Master Soundboard Cassette... (0) flac16; Sony ECM-990... (0) flac16; Analog... (0) flac24; Recording by... (0) flac16; Source Info:... (0)
Date User Comment