Browse Collections Artists Sources   Search Dates

Add Show    List Management    Help


Grateful Dead 12/31/83
San Francisco Civic Auditorium, San Francisco, CA
Comments Add Comment    Source Collectors    Add to Collection    Add to Want List    History
Source # 126610 Other Sources
Entered by Matt Vernon
Checksums flac-md5 , ffp
Disc Counts 0 / 0
Media Size Compressed: 1.13 GB (1216348160 bytes)
Uncompressed: 1.81 GB (1940144688 bytes)
Date Circulated
Date Added
01/03/2013
01/03/2014
Source Summary flac16; Matrix 3 Source Mix - SBD (shnid=96185) Recording Info: SBD -> Cassette Master (Nakamichi 550/Maxell XLII-S90) Transfer Info: Cassette Master (Nakamichi DR-1) -> Sound Devices 744T (24bit/96k) -> Samplitude Professional v10.1 -> Adobe Audition v1.5 -> FLAC/16; All Transfers and Mastering By Charlie Miller + AUD (shn id 112282) Source: 2 Sennheiser 421 microphones (up front-center) > Sony TC-D5M - analog master cassettes; Transfer: Sony TC-D5M (original record deck) > Pre Sonus Inspire GT > Sound Forge > .wav files > Trader's Little Helper > flac files + VID (no shn id) low generation video found on the internet for a video project - matrix mixing by Kevin Tobin 
  Archive
Source Information - Download Text | Download Zip
Grateful Dead
December 31, 1983
Civic Auditorium,
San Francisco, CA

SBD + AUD Matrix 3 Source Mix(48%-SBD/52%-AUD)

Set 1:
d1t01 - Tuning
d1t02 - Jack Straw
d1t03 - Peggy-O
d1t04 - Minglewood Blues
d1t05 - Candyman
d1t06 - My Brother Esau
d1t07 - Tennesee Jed
d1t08 - Hell In A Bucket ->
d1t09 - Don't Ease Me In

Set 2:
d2t01 - Tsaichovsky's 1812 Overture ->
d2t02 - Sugar Magnolia ->
d2t03 - Touch Of Grey
d2t04 - Estimated Prophet ->
d2t05 - Eyes Of The World ->
d2t06 - Drums ->
d3t01 - Space ->
d3t02 - Throwing Stones ->
d3t03 - Not Fade Away
d3t04 - Brokedown Palace

Set 3:
d3t05 - Big Boss Man ->
d3t06 - Iko Iko
d3t07 - In The Midnight Hour
d3t08 - Goodnite Irene
d3t09 - Bill Graham outro

Audio Source Information:
SBD (shnid = 96185)
Recording Info:
SBD -> Cassette Master (Nakamichi 550/Maxell XLII-S90)

Transfer Info:
Cassette Master (Nakamichi DR-1) -> Sound Devices 744T (24bit/96k) ->
Samplitude Professional v10.1 -> Adobe Audition v1.5 -> FLAC/16
(3 Discs Audio / 2 Discs FLAC)

All Transfers and Mastering By Charlie Miller
[email protected]
December 2, 2008

Patch Info:
FM -> ? -> Dat (shnid=13963) supplies:
Eyes Of The World (10:22  -10:44)
Not Fade Away (8:35 - 8:42)

Notes:
-- Seamless transition between Discs 1 and 2
-- Set 3 with Rick Danko and Maria Muldaur
-- Thanks to Joani Walker and Paul Scotton for the Cassettes
-- Thanks to Joe B. Jones for his help with the pitch correction

AUD (shnid = 112282)
Recorded by The Weasel - "Da Weez"
Transferred and mastered to .wav files by D5scott
Source: 2 Sennheiser 421 microphones (up front-center) > Sony TC-D5M - analog master cassettes
Transfer: Sony TC-D5M (original record deck) > Pre Sonus Inspire GT > Sound Forge > .wav files > Trader's Little Helper > flac files

VID (no shnid)
used for patching and timing standard
---------------------------------------------------------
- Mixed by [email protected]
- FLAC conversion 03-JAN-2014 - Trader Little Helper
- Tagged 03-JAN-2014 - Tag&Rename
---------------------------------------------------------
Multitrack Mixdown Settings

SET ONE

Stereo Matrix
SBD -0.5
AUD 0

SET TWO

Stereo Matrix
SBD -0.5
AUD 0
---------------------------------------------------------
BHP note: Both audio sources were very close to the video and only minor patching was needed mostly between songs in the first set.

Brokedown House Production

    length     expanded size    cdr  WAVE problems  fmt   ratio  filename
     2:10.43       23033180 B   ---   --   -----    wav  1.0000  gd1983-12-31d1t01.wav
     8:14.54       87268652 B   ---   --   -----    wav  1.0000  gd1983-12-31d1t02.wav
    10:08.13      107281820 B   ---   --   -----    wav  1.0000  gd1983-12-31d1t03.wav
    10:03.13      106399820 B   ---   --   -----    wav  1.0000  gd1983-12-31d1t04.wav
     7:16.20       76957484 B   ---   --   -----    wav  1.0000  gd1983-12-31d1t05.wav
     6:21.20       67255484 B   ---   --   -----    wav  1.0000  gd1983-12-31d1t06.wav
    10:05.52      106844348 B   ---   --   -----    wav  1.0000  gd1983-12-31d1t07.wav
     5:50.23       61794140 B   ---   --   -----    wav  1.0000  gd1983-12-31d1t08.wav
     3:30.18       37086380 B   ---   --   -----    wav  1.0000  gd1983-12-31d1t09.wav
     6:49.10       72171164 B   ---   --   -----    wav  1.0000  gd1983-12-31d2t01.wav
     6:22.52       67507148 B   ---   --   -----    wav  1.0000  gd1983-12-31d2t02.wav
     8:50.51       93611996 B   ---   --   -----    wav  1.0000  gd1983-12-31d2t03.wav
    13:36.60      144083564 B   ---   --   -----    wav  1.0000  gd1983-12-31d2t04.wav
    11:12.13      118571420 B   ---   --   -----    wav  1.0000  gd1983-12-31d2t05.wav
     9:55.43      105059180 B   ---   --   -----    wav  1.0000  gd1983-12-31d2t06.wav
    12:30.64      132450572 B   ---   --   -----    wav  1.0000  gd1983-12-31d3t01.wav
     7:48.26       82616396 B   ---   --   -----    wav  1.0000  gd1983-12-31d3t02.wav
    12:02.53      127485500 B   ---   --   -----    wav  1.0000  gd1983-12-31d3t03.wav
     6:58.32       73810508 B   ---   --   -----    wav  1.0000  gd1983-12-31d3t04.wav
     4:17.11       45360716 B   ---   --   -----    wav  1.0000  gd1983-12-31d3t05.wav
     6:30.72       68965388 B   ---   --   -----    wav  1.0000  gd1983-12-31d3t06.wav
     5:52.09       62114012 B   ---   --   -----    wav  1.0000  gd1983-12-31d3t07.wav
     6:19.47       66966188 B   ---   --   -----    wav  1.0000  gd1983-12-31d3t08.wav
     0:30.67        5449628 B   ---   --   -----    wav  1.0000  gd1983-12-31d3t09.wav
   183:18.41     1940144688 B                            1.0000  (24 files)



Show Checksums
flac-md5
51f44eedcab5d7f0282cd2e845ea3255 *gd1983-12-31d1t01.flac
ab92f6c2c1d7bb270ce1a51958dc7bbe *gd1983-12-31d1t02.flac
be782773ab5cf643a4a640881f4c150d *gd1983-12-31d1t03.flac
e5035761bae6d25cd16db6f84b64748a *gd1983-12-31d1t04.flac
aa097da2959f456db0215c3d8ab0d9eb *gd1983-12-31d1t05.flac
b8f070d67a177fd479fbb643eb084ce0 *gd1983-12-31d1t06.flac
978f186c0820de11fa76c0d29eb426b1 *gd1983-12-31d1t07.flac
208801a10eb886f989bf4d10d7348a5c *gd1983-12-31d1t08.flac
30aa93977a5067ea70ef2eb5c4905caf *gd1983-12-31d1t09.flac
5283edd711ead31f47d8842756a60f80 *gd1983-12-31d2t01.flac
74ce411d167881e162ae7ed4024b012b *gd1983-12-31d2t02.flac
c973391b73f4e878bfe33bd3682661c9 *gd1983-12-31d2t03.flac
94e2844c9ac15612e9713e21b0de2da1 *gd1983-12-31d2t04.flac
9b229ce00212f4383dcc2af5351bc070 *gd1983-12-31d2t05.flac
c883edb194cd3edcf1170076e5020ffa *gd1983-12-31d2t06.flac
e03e9e24d3b19966af91ee29a1c2f36f *gd1983-12-31d3t01.flac
7424dad48919e913ca483d1a33d9cb67 *gd1983-12-31d3t02.flac
893452605d3cea449f4101a5e54b9928 *gd1983-12-31d3t03.flac
4d67f4167029883e6dc95f745b57501b *gd1983-12-31d3t04.flac
fe4b0ec7cb4bb020b7b0caeb8445e027 *gd1983-12-31d3t05.flac
40db8bb55975fb80fb277aacee45ddf3 *gd1983-12-31d3t06.flac
b1e260ac15496c06122a9cc1468ca56f *gd1983-12-31d3t07.flac
8c95e22bf30453000c9ecae91047e7c4 *gd1983-12-31d3t08.flac
fc5594f7fa6e46d1aed9b1482a51aad1 *gd1983-12-31d3t09.flac
ffp
gd1983-12-31d1t01.flac:7bc89c25e0c11c14eedc5490d6773d41
gd1983-12-31d1t02.flac:1b8cf362532df490550a7627d83faadb
gd1983-12-31d1t03.flac:81adb605aadae5fd752442c7d7f3ecda
gd1983-12-31d1t04.flac:1620b50263d440b45edf38e215e8e29a
gd1983-12-31d1t05.flac:29d4e25e5ec88254af1e54c19a1e61a1
gd1983-12-31d1t06.flac:4b8de1487d6c9fe8333a656f7566a2db
gd1983-12-31d1t07.flac:63ef38d3c6d9f8b6533b732937dd9e21
gd1983-12-31d1t08.flac:f26fd74609c423f35a924b1488eff69d
gd1983-12-31d1t09.flac:36a2fac9b6e285bea2661d0f0df1bb15
gd1983-12-31d2t01.flac:5e02cfd0cbd7a34c796e913de4bdb482
gd1983-12-31d2t02.flac:af44013689041f6252aa0fad11188652
gd1983-12-31d2t03.flac:d4bbee57f880ea4cd07fdc0ec7cc0afe
gd1983-12-31d2t04.flac:37f8456ca0dfcf475c5153cfe8ce0558
gd1983-12-31d2t05.flac:3acdc66e3b3c5e91bd4dd57b98b45e37
gd1983-12-31d2t06.flac:3572a220ea39ec88a31ef77b697b6521
gd1983-12-31d3t01.flac:3f147bd6b8b5b3ed24b2d575bbc0727d
gd1983-12-31d3t02.flac:0c8bdb0126632a679d8d31e86c32a956
gd1983-12-31d3t03.flac:003fd63f78b5804ad8a4631072ebf128
gd1983-12-31d3t04.flac:3764f2388f5c2fbd164481ad579bf76b
gd1983-12-31d3t05.flac:dd10dfb21af3d7fd874999c972ac4ffb
gd1983-12-31d3t06.flac:373807368889003b12a69a29d3081767
gd1983-12-31d3t07.flac:866f05ebf94dfc3bc3a2056fc5bc5528
gd1983-12-31d3t08.flac:bd4e34bb953cceff34d0741b134aeac3
gd1983-12-31d3t09.flac:b00b82d65f6bf05988c0a742bcde9fbb

Comments
Add Comment
Other Sources (comments)
sbd> mr> dats> wav> shn... (0) SBD -> Rm -> Dat -> M-Audio... (0) (Bertha Remaster)... (0) 3 Beyer M160 FOB> Sony... (0) flac16; SBD ->... (4) flac16; FOB... (0) flac16; Source:... (0) flac16; Set 3 only -... (0) flac16; Recording... (0) flac16; Source: 2... (1) flac16; Master... (0) flac24; Master... (0) flac16; source: aud... (0) flac24; source: aud... (0)
Date User Comment