Browse Collections Artists Sources   Search Dates

Add Show    List Management    Help


Grateful Dead 05/15/80
Nassau Coliseum, Uniondale, NY
Comments Add Comment    Source Collectors    Add to Collection    Add to Want List    History
Source # 126692 Other Sources
Entered by Matt Vernon
Checksums ffp , flac-md5
Disc Counts 0 / 0
Media Size Compressed: 1.05 GB (1131056482 bytes)
Uncompressed: 1.56 GB (1679870016 bytes)
Date Circulated
Date Added
01/07/2014
01/07/2014
Source Summary flac16; 2 Source Matrix by dusborne; Soundboard (shnid:93426) Recording Info: SBD -> Cassette Master -> Dat (48k); Transfer Info: Dat (Sony R500) -> VXPocket v2 -> Samplitude Professional v10.1 -> FLAC and Audience (shnid:126082) Recording by Jim Wise: Master Audience Cassette; 2 Sony ECM-280s> Sony D-5; Transfer and FLAC encoding by David Minches: Master played back on Nakamichi Dragon > Korg MR-1000(DSF [1-bit 5.6448 MHz Stereo]) Korg AudioGate > WAV [24/96] > Adobe Audition 3.0> FLAC encoding 
  Archive
Source Information - Download Text | Download Zip
Grateful Dead
May 15, 1980
Nassau Veterans Memorial Coliseum
Uniondale, NY

2 Source Matrix

Soundboard (shnid:93426)
--------------------------------------------------------------------------------
gd1980-05-15.sbd.cantor.miller.93426.sbeok.flac16

Recording Info:
SBD -> Cassette Master -> Dat (48k)

Transfer Info:
Dat (Sony R500) -> VXPocket v2 -> Samplitude Professional v10.1 -> FLAC
(2 Discs Audio / 2 Discs FLAC)

All Transfers and Mastering By Charlie Miller
[email protected]
July 28, 2008

Patch Info:
Unknown Mics -> Cassette Master -> Dat -> CD (shnid=34721) supplies:
Cassidy (4:20 - end of track)
Althea (0:00 - 0:05)
Lost Sailor (1:42 - 4:36)

Notes:
-- Disc change is seamless
-- Thanks to Rob Eaton for lending me his Dats
-- This is from Betty's recording mix
-- There are numerous mix changes throughout the show


Audience (shnid:126082)
--------------------------------------------------------------------------------
gd1980-05-15.126082.ecm280.wise.minches.flac2496
Recording by Jim Wise:
Master Audience Cassette; 2 Sony ECM-280s> Sony D-5

Transfer and FLAC encoding by David Minches:
Master played back on Nakamichi Dragon > Korg MR-1000(DSF [1-bit 5.6448 MHz Stereo])
Korg AudioGate > WAV [24/96] > Adobe Audition 3.0> FLAC encoding
--------------------------------------------------------------------------------

---Thank you Charlie Miller for your work on the SBD.
---Thank you Rob Eaton for the SBD. DATs.
---Thank you Betty Cantor for recording the show.
---Thank you Jim Wise for recording the show.
---Thank you David Minches for your AUD. transfer.
---Thank you XJ32 for the artwork.
---Thank you Germain for your advice, encouragement, guidance and seeding.

Matrix by dusborne

01-06-2014
--------------------------------------------------------------------------------

Set 1

101 - gd80-05-15s1t01 - Tuning
102 - gd80-05-15s1t02 - Jack Straw ->
103 - gd80-05-15s1t03 - Franklin's Tower
104 - gd80-05-15s1t04 - Cassidy
105 - gd80-05-15s1t05 - They Love Each Other
106 - gd80-05-15s1t06 - Lazy Lightning ->
107 - gd80-05-15s1t07 - Supplication
108 - gd80-05-15s1t08 - Peggy-O
109 - gd80-05-15s1t09 - Far From Me
110 - gd80-05-15s1t10 - Feel Like A Stranger ->
111 - gd80-05-15s1t11 - Deal

Set2

201 - gd80-05-15s2t01 - Tuning
202 - gd80-05-15s2t02 - Althea
203 - gd80-05-15s2t03 - Lost Sailor ->
204 - gd80-05-15s2t04 - Saint Of Circumstance ->
205 - gd80-05-15s2t05 - Terrapin Station ->
206 - gd80-05-15s2t06 - Playing In The Band ->
207 - gd80-05-15s2t07 - Uncle John's Band ->
208 - gd80-05-15s2t08 - Drums ->
209 - gd80-05-15s2t09 - Space ->
210 - gd80-05-15s2t10 - Not Fade Away ->
211 - gd80-05-15s2t11 - Goin' Down The Road Feeling Bad ->
212 - gd80-05-15s2t12 - Good Lovin'

Encore
213 - gd80-05-15s2t13 - Alabama Getaway
-------------------------------------------------------------------------------
Tagging notes:
Show information is embedded within the header
of each flac file. It will display on any player
capable of directly playing flac files.
If converted to wav during processing, all tags
will be stripped, however audio data will remain
unaffected. If you must transcode to a lossy format,
do so directly Flac > Lossy.
Use st5 to validate audio integrity.
Md5 values will change if tagging is altered.

Dave Usborne 01-06-2014
--------------------------------------------------------------------------------
length     expanded size    cdr  WAVE problems  fmt   ratio  filename
     3:16.03       34581500 B   ---   --   ---xx   flac  0.6156  gd80-05-15s1t01.flac
     5:57.21       63024236 B   ---   --   ---xx   flac  0.7034  gd80-05-15s1t02.flac
    13:50.42      146510828 B   ---   --   ---xx   flac  0.7064  gd80-05-15s1t03.flac
     5:07.20       54201884 B   ---   --   ---xx   flac  0.6872  gd80-05-15s1t04.flac
     8:00.28       84737900 B   ---   --   ---xx   flac  0.6541  gd80-05-15s1t05.flac
     3:41.64       39134972 B   ---   --   ---xx   flac  0.6641  gd80-05-15s1t06.flac
     6:28.13       68473820 B   ---   --   ---xx   flac  0.6758  gd80-05-15s1t07.flac
     7:37.41       80711276 B   ---   --   ---xx   flac  0.6641  gd80-05-15s1t08.flac
     4:50.61       51299516 B   ---   --   ---xx   flac  0.6664  gd80-05-15s1t09.flac
     8:51.16       93706076 B   ---   --   ---xx   flac  0.7052  gd80-05-15s1t10.flac
     5:21.13       56655020 B   ---   --   ---xx   flac  0.6906  gd80-05-15s1t11.flac
     0:37.67        6684428 B   ---   --   ---xx   flac  0.6146  gd80-05-15s2t01.flac
     9:12.74       97546892 B   ---   --   ---xx   flac  0.6658  gd80-05-15s2t02.flac
     6:27.46       68375036 B   ---   --   ---xx   flac  0.6401  gd80-05-15s2t03.flac
     6:07.33       64816460 B   ---   --   ---xx   flac  0.6947  gd80-05-15s2t04.flac
    12:26.73      131766140 B   ---   --   ---xx   flac  0.6619  gd80-05-15s2t05.flac
     8:00.29       84740252 B   ---   --   ---xx   flac  0.6856  gd80-05-15s2t06.flac
     8:22.74       88726892 B   ---   --   ---xx   flac  0.6731  gd80-05-15s2t07.flac
     7:21.41       77888876 B   ---   --   ---xx   flac  0.6157  gd80-05-15s2t08.flac
     3:24.12       36013868 B   ---   --   ---xx   flac  0.6571  gd80-05-15s2t09.flac
     4:24.15       46604924 B   ---   --   ---xx   flac  0.6568  gd80-05-15s2t10.flac
     6:32.11       69174716 B   ---   --   ---xx   flac  0.6725  gd80-05-15s2t11.flac
     8:01.49       84963692 B   ---   --   ---xx   flac  0.6746  gd80-05-15s2t12.flac
     4:40.59       49530812 B   ---   --   ---xx   flac  0.7067  gd80-05-15s2t13.flac
   158:43.05     1679870016 B                            0.6733  (24 files)


Show Checksums
ffp
gd80-05-15s1t01.flac:2c299e623b08cdedf5fadffcb6397d92
gd80-05-15s1t02.flac:2aa5ae1c55c794d39ba6c593a395f82a
gd80-05-15s1t03.flac:3243c99aa95e9069b2b4e65b748f915b
gd80-05-15s1t04.flac:8d80ee01a1d3ca3e47ec2b2897c234c1
gd80-05-15s1t05.flac:e3df292970adfdcbeee30c18e1aba9af
gd80-05-15s1t06.flac:74caa5e7e75c8000576c69700c9f9c57
gd80-05-15s1t07.flac:83aa633308200036e4f44a8ce49d9c6a
gd80-05-15s1t08.flac:9cc92e3e7f13ddcc68c75085ac2c6096
gd80-05-15s1t09.flac:736c6f0b5f3a6f73b40e5851ff437e9f
gd80-05-15s1t10.flac:609699d890eb09d61748ea529c079a2c
gd80-05-15s1t11.flac:cf119ec09276c4973b8b27aa05079ba4
gd80-05-15s2t01.flac:80834db712112c5e4f979061073c1633
gd80-05-15s2t02.flac:34bdca8d9cf3db0aea30d05b2785ae63
gd80-05-15s2t03.flac:26b9e20c05eb084608a1d01c6ce760ae
gd80-05-15s2t04.flac:e64e9a125d8260f3dfb182df380ac858
gd80-05-15s2t05.flac:039b437c6f6d24eeb6bae383d90ecc3a
gd80-05-15s2t06.flac:0161858d6d210b4c9afead40530c758a
gd80-05-15s2t07.flac:a98c60741250a2a23b9ddb697ff2696b
gd80-05-15s2t08.flac:ea73493ad162f40859280519674dee1c
gd80-05-15s2t09.flac:b3c5e2558f0dc2007a7c63d2cf27615f
gd80-05-15s2t10.flac:21ecd47f3fa34396613954556598b48a
gd80-05-15s2t11.flac:5b4051a4b96ce7baf183df500844ce9c
gd80-05-15s2t12.flac:5c905735955271ffa9ce67a3e5a648c9
gd80-05-15s2t13.flac:5d00b081c12e78ec24f3c8c5ee0abeb3
flac-md5
0ce2f87d59ad793e9093adc3929d4501 *gd80-05-15s1t01.flac
0446ae7e02e0ee73c0e37b2b02f08797 *gd80-05-15s1t02.flac
38f45f155d9b73ef6af9c293b602e5e6 *gd80-05-15s1t03.flac
bc641ec7f8154cc84022a0bdd41dd8c8 *gd80-05-15s1t04.flac
0cc8456a63f260fce28d45e4b0ac5205 *gd80-05-15s1t05.flac
38c5985aa69bf62c0347aee1fca573ea *gd80-05-15s1t06.flac
82a19427bc6f1689509087e9af1c3c28 *gd80-05-15s1t07.flac
88dd6a46ad686a8c31d213a63a533ba6 *gd80-05-15s1t08.flac
9a5585930e172a8651ebfede15ed1592 *gd80-05-15s1t09.flac
5992dac76b7ab51b2343ba08c5901dfa *gd80-05-15s1t10.flac
30e4218f8acf82a3414f21649cfe1dab *gd80-05-15s1t11.flac
2e97ccbc1d86c28a608a63ecd53e7707 *gd80-05-15s2t01.flac
4c7a45f5bdb7de236404192e07153d9e *gd80-05-15s2t02.flac
1ea2b8d028b143dd87f7c73665bf439b *gd80-05-15s2t03.flac
8d8deef6b273f9b09b244aad33a68a1d *gd80-05-15s2t04.flac
7cd4f8d867ca7353739660b87d947ca7 *gd80-05-15s2t05.flac
d1ef9431a52ffcf08c72109d95487198 *gd80-05-15s2t06.flac
5b96658473f4eb7d920d739d7e1d311e *gd80-05-15s2t07.flac
36b685662f6c002b448ede11fed406d5 *gd80-05-15s2t08.flac
5506272b3009dc3925fb3a13cdc5638f *gd80-05-15s2t09.flac
a97879fc3874ccaf0f9f3abaa3b35702 *gd80-05-15s2t10.flac
e1f3ef1ecc70fa8059871c6a16bee15b *gd80-05-15s2t11.flac
c9b66a632b8f92dfbbdcf7948053d906 *gd80-05-15s2t12.flac
604432272b56363329105772e0f73cbf *gd80-05-15s2t13.flac

Comments
Add Comment
Other Sources (comments)
AUD> MC> DAT> CDR; via Alan... (0) flac16; AUD Source:... (0) flac16; Recording... (0) flac16;Analog... (0) flac24;Analog... (1) flac24; Recording by... (0)
Date User Comment