Browse Collections Artists Sources   Search Dates

Add Show    List Management    Help


Grateful Dead 03/22/90
Copps Coliseum, Hamilton, ON
Comments Add Comment    Source Collectors    Add to Collection    Add to Want List    History
Source # 126698 Other Sources
Entered by Matt Vernon
Checksums flac-md5 , ffp
Disc Counts 0 / 0
Media Size Compressed: 907 MB (951058432 bytes)
Uncompressed: 1.52 GB (1630652020 bytes)
Date Circulated
Date Added
01/09/2013
01/10/2014
Source Summary flac16; Matrix 3 Source Mix - SBD (shnid=107871) Recording Info:SBD -> Cassette Master (TDK SA-X90); Transfer Info: Cassette Master (Nakamichi DR-1) -> Sound Devices 744T (24bit/48k) -> Samplitude Professional v11.03 -> FLAC/16; All Transfers and Mastering By Charlie Miller + AUD (shn id 125880) flac16/48kHz; Source: Schoeps CMC5/MK4 > Aerco P/S > Panasonic SV250 (48 khz); Config/Location: ORTF/FOB 19th row on a stand; Original transfer and processing: DAT(2) > Sony PCM-2600 > Audioquest coax > TB Fiji Soundforge 4.5 > CDWave > MKWAct. No DAE; Fixed processing: xACT 2.23(shn>wav)>Audacity(inverted right channel with 32 bit float> flac)>xACT 2.23>wav>Sound Studio 3.6(normalize peak, +gain, re-track)> xACT 2.23(encode, tag, fingerprint)>flac16 (level 8) Taped by: Ted Mattes; DAT clone (2), DAT transfer, original processing, SHN extraction, MD5 verification and channel inversion all provided and done by: Craig Hillwig; Final processing, level adjustment and seeding by: Lenny Stubbe + VID (no shn id) master video found supplied by Peanut Production for a video project - matrix mixing by Kevin Tobin 
  Archive
Source Information - Download Text | Download Zip
Grateful Dead
Copps Coliseum, Hamilton, Ontario, Canada
March 22, 1990

SBD + AUD Matrix 3 Source Mix(48%-SBD/52%-AUD)

Set 1:
d1t01 - Tuning
d1t02 - Feel Like A Stranger
d1t03 - West L.A. Fadeaway
d1t04 - Easy To Love You
d1t05 - Beat It On Down The Line
d1t06 - It Must Have Been The Roses
d1t07 - The Last Time
d1t08 - Picasso Moon
d1t09 - Don't Ease Me In

Set 2:
d2t01 - Tuning
d2t02 - Scarlet Begonias ->
d2t03 - Fire On The Mountain
d2t04 - Samson And Delilah
d2t05 - Believe It Or Not ->
d2t06 - Truckin' ->
d2t07 - Drums ->
d3t01 - Space ->
d3t02 - The Other One ->
d3t03 - Hey Jude ->
d3t04 - Dear Mr. Fantasy ->
d3t05 - Hey Jude ->
d3t06 - Sugar Magnolia

Encore:
d3t07 - It's All Over Now, Baby Blue

Audio Source Information:
SBD (shnid = 107871)
Recording Info:
SBD -> Cassette Master (TDK SA-X90)

Transfer Info:
Cassette Master (Nakamichi DR-1) -> Sound Devices 744T (24bit/48k) ->
Samplitude Professional v11.03 -> FLAC/16
(2 Discs Audio / 2 Discs FLAC)

All Transfers and Mastering By Charlie Miller
[email protected]
May 22, 2010

Patch Info:
(FOB) Schoeps CMC5/MK4 -> Dat (shnid=7460) supplies:
Drums (2:39 - 4:35)

Notes:
-- Disc change is seamless

AUD (shnid = 125880)
Source: Audience Recording
**16 bit/48khz**

Source: Schoeps CMC5/MK4 > Aerco P/S > Panasonic SV250 (48 khz)
Config/Location: ORTF/FOB 19th row on a stand
Original transfer and processing: DAT(2) > Sony PCM-2600 > Audioquest coax > TB Fiji > Soundforge 4.5 > CDWave > MKWAct. No DAE

Fixed processing: xACT 2.23(shn>wav)>Audacity(inverted right channel with 32 bit float> flac)>xACT 2.23>wav>Sound Studio 3.6(normalize peak, +gain, re-track)>
xACT 2.23(encode, tag, fingerprint)>flac16 (level 8 )
Taped by: Ted Mattes
DAT clone (2), DAT transfer, original processing, SHN extraction, MD5 verification and channel inversion all provided and done by: Craig Hillwig
Final processing, level adjustment and seeding by: Lenny Stubbe

Notes:
- Last Roses 4/9/89 (67 shows)
- Final and last Hey Jude 3/1/69 (1,525 shows)
- Final and last Believe It 10/21/88 (89 shows)
- 12 beats to start BIODTL
- This is a NEW processing of the original SHN files of SHNID #7460.  This is an upgrade due to the fact that the right channel was inverted on the original DAT recording and not previously caught.  This new fileset includes the channel inversion, as well and some low level adjustment.  No EQ was applied whatsoever.  MD5's of the original SHN's verified.  Thanks to Craig for catching the channel issue and suggesting we fix and reseed
- 44.1khz version exists

Seeded to etree on:
10/15/2013

VID (no shnid)
used for timing standard
---------------------------------------------------------
- Mixed by [email protected]
- FLAC conversion 09-JAN-2014 - Trader Little Helper
- Tagged 09-JAN-2014 - Tag&Rename
---------------------------------------------------------
Multitrack Mixdown Settings

SET ONE

Stereo Matrix
SBD -1.5
AUD -1.0

SET TWO

Stereo Matrix
SBD -1.5
AUD -1.0
---------------------------------------------------------
BHP note: Both audio sources were very close to the video and only minor patching was needed mostly between songs in the first set.

Brokedown House Production

    length     expanded size    cdr  WAVE problems  fmt   ratio  filename
     0:23.53        4181900 B   ---   --   -----    wav  1.0000  gd1990-03-22d1t01.wav
     8:28.35       89693564 B   ---   --   -----    wav  1.0000  gd1990-03-22d1t02.wav
     7:35.02       80266748 B   ---   --   -----    wav  1.0000  gd1990-03-22d1t03.wav
     6:58.18       73777580 B   ---   --   -----    wav  1.0000  gd1990-03-22d1t04.wav
     3:51.29       40816652 B   ---   --   -----    wav  1.0000  gd1990-03-22d1t05.wav
     7:29.42       79302428 B   ---   --   -----    wav  1.0000  gd1990-03-22d1t06.wav
     8:30.64       90114572 B   ---   --   -----    wav  1.0000  gd1990-03-22d1t07.wav
     7:04.65       74946524 B   ---   --   -----    wav  1.0000  gd1990-03-22d1t08.wav
     3:29.61       37011116 B   ---   --   -----    wav  1.0000  gd1990-03-22d1t09.wav
     0:28.05        4951004 B   ---   --   -----    wav  1.0000  gd1990-03-22d2t01.wav
     8:08.05       86095004 B   ---   --   -----    wav  1.0000  gd1990-03-22d2t02.wav
    11:59.57      126965708 B   ---   --   -----    wav  1.0000  gd1990-03-2d2t03.wav
     6:50.62       72469868 B   ---   --   -----    wav  1.0000  gd1990-03-22d2t04.wav
     6:35.67       69835628 B   ---   --   -----    wav  1.0000  gd1990-03-22d2t05.wav
    10:58.49      116186492 B   ---   --   -----    wav  1.0000  gd1990-03-22d2t06.wav
    12:12.32      129200108 B   ---   --   -----    wav  1.0000  gd1990-03-22d2t07.wav
     5:32.31       58637756 B   ---   --   -----    wav  1.0000  gd1990-03-22d3t01.wav
     8:23.39       88820972 B   ---   --   -----    wav  1.0000  gd1990-03-22d3t02.wav
     4:51.49       51447692 B   ---   --   -----    wav  1.0000  gd1990-03-22d3t03.wav
     3:58.35       42065564 B   ---   --   -----    wav  1.0000  gd1990-03-22d3t04.wav
     4:30.54       47755052 B   ---   --   -----    wav  1.0000  gd1990-03-22d3t05.wav
     8:31.02       90145148 B   ---   --   -----    wav  1.0000  gd1990-03-22d3t06.wav
     7:10.48       75964940 B   ---   --   -----    wav  1.0000  gd1990-03-22d3t07.wav
   154:04.04     1630652020 B                            1.0000  (23 files)




Show Checksums
flac-md5
61f248916614095d16fb007c3bbe4e4a *gd1990-03-22d1t01.flac
a582c62b4577344e7e39adaacc851390 *gd1990-03-22d1t02.flac
797152f6255ba9cac2d741da9ebb5a2f *gd1990-03-22d1t03.flac
a64b1582089eba58b640e89e6ff5f1d7 *gd1990-03-22d1t04.flac
9a8214b2aa37551ac85627eb4f4c522b *gd1990-03-22d1t05.flac
56c8964139ca8249b063a71ecc0ea597 *gd1990-03-22d1t06.flac
0d8fd9a737f5109c83ed1512769d39ad *gd1990-03-22d1t07.flac
35bacab75e18b0b4b974c86e7ef4a7ae *gd1990-03-22d1t08.flac
5fddd26d2af3a8f2e7d56b3009944a41 *gd1990-03-22d1t09.flac
c8e541bfaacead442ca285b6e425dd1e *gd1990-03-22d2t01.flac
4d228fe8bc451407f4231a6197b4c944 *gd1990-03-22d2t02.flac
ae1d5a84c718e5de175002511e0c2ee9 *gd1990-03-22d2t03.flac
5003c20f07abe5a21a269c548a2277aa *gd1990-03-22d2t04.flac
a267e3556d912d15f94397c62f3e42a3 *gd1990-03-22d2t05.flac
720507041281ca2f957c4d7d79d7348f *gd1990-03-22d2t06.flac
afb2d107e5d9effbbad582de6902c38b *gd1990-03-22d2t07.flac
f8142941a5b69e30028e0f529854f8a3 *gd1990-03-22d3t01.flac
90c46cc9baac3ad2204fd8206040c735 *gd1990-03-22d3t02.flac
9b3bbe02dad3d7ed2b2173293a184b61 *gd1990-03-22d3t03.flac
11f695090a94a62f171a937fc25714c5 *gd1990-03-22d3t04.flac
6b01e1c1140b415ef182a4d049836d08 *gd1990-03-22d3t05.flac
fc21445e3031ba9cccd1456e4ea27791 *gd1990-03-22d3t06.flac
2ca43b97eeee5edc7c777bc8aa025969 *gd1990-03-22d3t07.flac
ffp
gd1990-03-22d1t01.flac:93dbd85441178a61f18891331319d7d4
gd1990-03-22d1t02.flac:4f7f0a84cc5f68686e513dadc1e23c6e
gd1990-03-22d1t03.flac:71103cebe7f4edf76f704ed7970fe1ac
gd1990-03-22d1t04.flac:5051a869b00fdb6b87af53db40720877
gd1990-03-22d1t05.flac:dd33406015ee21ecece6474574a2d688
gd1990-03-22d1t06.flac:fc04b9b1dff540e877ba316f594d9bb9
gd1990-03-22d1t07.flac:8c5c8532bc8d82b414eacf0631753d61
gd1990-03-22d1t08.flac:e819034e326629939d1959ea49ff35aa
gd1990-03-22d1t09.flac:a435a4d592bc09414d923b871d0400f4
gd1990-03-22d2t01.flac:3779a18252f800034b533077bd2140ed
gd1990-03-22d2t02.flac:6d712d2234beca7c082134a72411d237
gd1990-03-22d2t03.flac:fafbee185de1027186f9fc9151201f3b
gd1990-03-22d2t04.flac:6c0e42522a3cc8d581615f73423be6f0
gd1990-03-22d2t05.flac:4ce44d9b75ce0a0acf98294ab78ca530
gd1990-03-22d2t06.flac:7f6d17cd62c8479cdb6c044ad927152b
gd1990-03-22d2t07.flac:db7a6fb0b8de11e40e9425f6b87e0c7d
gd1990-03-22d3t01.flac:98cb200cfcd0a89ac138cb97f38c1aaa
gd1990-03-22d3t02.flac:9b211dddc916c92e9ed186ac9f9dc95a
gd1990-03-22d3t03.flac:d6b3ea12434bb4df04c313a44a91d39a
gd1990-03-22d3t04.flac:45159b2c3f04497289809db5f56f424c
gd1990-03-22d3t05.flac:0965389de2c9f8969bcab31687f52377
gd1990-03-22d3t06.flac:9948f0eec537996ff4cc9724e44905de
gd1990-03-22d3t07.flac:faef83d956430308154535c32bf274f6

Comments
Add Comment
Other Sources (comments)
SBD (Matrix)> DAT> CD> EAC>... (2) Schoeps CMC54 (ORTF, 19th... (0) Bertha Remaster of the... (0) SBD + AUD Matrix Mix... (0) DTS Audio 5.1; Mix... (1) flac16; AUD:... (0) flac16; Recording... (0) Soundboard... (2) flac16:Matrix by... (1) flac16/48kHz;... (0) flac16; Source:... (0) DTS-Audio-CD 5.1... (0) flac16; Recording... (0) flac16/48kHz; Master... (0) flac16/48kHz; Ted... (0)
Date User Comment