Browse Collections Artists Sources   Search Dates

Add Show    List Management    Help


Grateful Dead 05/16/80
Nassau Coliseum, Uniondale, NY
Comments Add Comment    Source Collectors    Add to Collection    Add to Want List    History
Source # 126718 Other Sources
Entered by Matt Vernon
Checksums flac-md5 , ffp
Disc Counts 0 / 0
Media Size Compressed: 956.22 MB (1002672621 bytes)
Uncompressed: 1.66 GB (1781262428 bytes)
Date Circulated
Date Added
01/13/2014
01/13/2014
Source Summary flac16; 2 source matrix by Dusborne; Soundboard (shnid:89473) Source 1: Master Soundboard Cassette > Cassette > DAT> CDR (s101-s211) Source 2: Unknown nth generation audience cassette > Sony TC-KE500S > The Card > CoolEdit > shntool > FLAC (s211-s212) Source 3: FM broadcast > cassette (TDK SA-90). Transfer: Cassette > Sony TC-D5M (no Dolby) > Soundblaster > Soundforge > CD-Wave > TLH (for SBE-OK, checksums and FLAC compression) > FLAC (s213) and Audience (shnid:126104) Recording by Jim Wise: Master Audience Cassette; 2 Sony ECM-280s > Sony D-5; Transfer and FLAC encoding by David Minches: Master played back on Nakamichi Dragon > Korg MR-1000(DSF [1-bit 5.6448 MHz Stereo])Korg AudioGate > WAV [24/96] > Adobe Audition 3.0 > FLAC encoding 
  Archive
Source Information - Download Text | Download Zip
Grateful Dead
May 16, 1980
Nassau Veterans Memorial Coliseum
Uniondale, NY

2 Source Matrix

Soundboard (shnid:89473)
--------------------------------------------------------------------------------
gd1980-05-16.sbd.clugston.hempel.89473.sbeok.flac16


Source 1: Supplies whole show up to half way through D3T5 (shnid 7472)
  Master Soundboard Cassette > Cassette > DAT> CDR

Source 2: Supplies d3t7 Brokedown Palace (shnid 34685)
  Recording: FM broadcast > cassette (TDK SA-90).
  Transfer: Cassette > Sony TC-D5M (no Dolby) > Soundblaster >
  Soundforge > CD-Wave > TLH (for SBE-OK, checksums and FLAC
  compression) > FLAC

Source 3: Supplies end of D3T5 and all of D3T6
  Unknown nth generation audience cassette > Sony TC-KE500S >
          The Card > CoolEdit > shntool > FLAC

Note: D2T6 and D3T1 have been trimmed to make drums seamless.

Seeded by Thomas Hempel 10-Jan-2008, [email protected]

Audience (shnid:126104)
--------------------------------------------------------------------------------
gd1980-05-16.126104.ecm280.wise.minches.flac2496

Recording by Jim Wise:
Master Audience Cassette; 2 Sony ECM-280s > Sony D-5

Transfer and FLAC encoding by David Minches:
Master played back on Nakamichi Dragon > Korg MR-1000(DSF [1-bit 5.6448 MHz
Stereo])Korg AudioGate > WAV [24/96] > Adobe Audition 3.0 > FLAC encoding
--------------------------------------------------------------------------------
---Thank You Scott Clugston for your work on the SBD.
---Thank you Jim Wise for recording the show.
---Thank you Thomas Hempel for seeding the AUD.
---Thank you David Minches for your AUD. transfer.
---Thank you XJ32 for the art work.
---Thank you Germain for your advice, encouragement, guidance and seeding.

Matrix by dusborne

01-12-2014
--------------------------------------------------------------------------------

Set 1

101 - gd80-05-16s1t01 - Tuning
102 - gd80-05-16s1t02 - Alabama Getaway ->
103 - gd80-05-16s1t03 - Promised Land
104 - gd80-05-16s1t04 - High Time
105 - gd80-05-16s1t05 - Me & My Uncle ->
106 - gd80-05-16s1t06 - Big River
107 - gd80-05-16s1t07 - Row Jimmy
108 - gd80-05-16s1t08 - Minglewood Blues
109 - gd80-05-16s1t09 - Ramble On Rose
110 - gd80-05-16s1t10 - Looks Like Rain
111 - gd80-05-16s1t11 - China Cat Sunflower ->
112 - gd80-05-16s1t12 - I Know You Rider

Set 2

201 - gd80-05-16s2t01 - Tuning
202 - gd80-05-16s2t02 - Feel Like A Stranger ->
203 - gd80-05-16s2t03 - Althea
204 - gd80-05-16s2t04 - Lost Sailor ->
205 - gd80-05-16s2t05 - St. of Circumstance ->
206 - gd80-05-16s2t06 - Eyes of the World ->
207 - gd80-05-16s2t07 - Drums ->
208 - gd80-05-16s2t08 - Space ->
209 - gd80-05-16s2t09 - Truckin' ->
210 - gd80-05-16s2t10 - Morning Dew ->
211 - gd80-05-16s2t11 - Around & Around ->
212 - gd80-05-16s2t12 - Johnny B. Goode *Audience only(shnid:126104)

Encore
213 - gd80-05-16s2t13 - Brokedown Palace *FM/AUD Matrix
--------------------------------------------------------------------------------
Tagging notes:
Show information is embedded within the header
of each flac file. It will display on any player
capable of directly playing flac files.
If converted to wav during processing, all tags
will be stripped, however audio data will remain
unaffected. If you must transcode to a lossy format,
do so directly Flac > Lossy.
Use st5 to validate audio integrity.
Md5 values will change if tagging is altered.

Dave Usborne 01-12-2014
--------------------------------------------------------------------------------
length     expanded size    cdr  WAVE problems  fmt   ratio  filename
     1:09.29       12239852 B   ---   --   ---xx   flac  0.5595  gd80-05-16s1t01.flac
     4:27.40       47192924 B   ---   --   ---xx   flac  0.5639  gd80-05-16s1t02.flac
     5:32.30       58635404 B   ---   --   ---xx   flac  0.5679  gd80-05-16s1t03.flac
     8:39.47       91662188 B   ---   --   ---xx   flac  0.5317  gd80-05-16s1t04.flac
     3:06.73       32982140 B   ---   --   ---xx   flac  0.5684  gd80-05-16s1t05.flac
     7:06.03       75153500 B   ---   --   ---xx   flac  0.5704  gd80-05-16s1t06.flac
    12:15.45      129759884 B   ---   --   ---xx   flac  0.5517  gd80-05-16s1t07.flac
     7:45.04       82035452 B   ---   --   ---xx   flac  0.5740  gd80-05-16s1t08.flac
     7:46.33       82280060 B   ---   --   ---xx   flac  0.5510  gd80-05-16s1t09.flac
     8:18.71       88014236 B   ---   --   ---xx   flac  0.5455  gd80-05-16s1t10.flac
     5:29.55       58165004 B   ---   --   ---xx   flac  0.5612  gd80-05-16s1t11.flac
     6:16.48       66439340 B   ---   --   ---xx   flac  0.5663  gd80-05-16s1t12.flac
     2:11.57       23242508 B   ---   --   ---xx   flac  0.5954  gd80-05-16s2t01.flac
     8:38.29       91443452 B   ---   --   ---xx   flac  0.5631  gd80-05-16s2t02.flac
     8:28.60       89752364 B   ---   --   ---xx   flac  0.5576  gd80-05-16s2t03.flac
     5:53.32       62344508 B   ---   --   ---xx   flac  0.5444  gd80-05-16s2t04.flac
     6:13.28       65863100 B   ---   --   ---xx   flac  0.5820  gd80-05-16s2t05.flac
    10:12.17      107996828 B   ---   --   ---xx   flac  0.5765  gd80-05-16s2t06.flac
     9:57.63      105459020 B   ---   --   ---xx   flac  0.5619  gd80-05-16s2t07.flac
     4:46.07       50466908 B   ---   --   ---xx   flac  0.4920  gd80-05-16s2t08.flac
     8:11.05       86624204 B   ---   --   ---xx   flac  0.5895  gd80-05-16s2t09.flac
    10:03.18      106411580 B   ---   --   ---xx   flac  0.5491  gd80-05-16s2t10.flac
     4:05.56       43349756 B   ---   --   ---xx   flac  0.5717  gd80-05-16s2t11.flac
     4:34.20       48380684 B   ---   --   ---xx   flac  0.6069  gd80-05-16s2t12.flac
     7:07.19       75367532 B   ---   --   ---xx   flac  0.6053  gd80-05-16s2t13.flac
   168:17.64     1781262428 B                            0.5629  (25 files)


Show Checksums
flac-md5
ba1a2e9a72c9a8ade9be428dfe787b35 *gd80-05-16s1t01.flac
4e78f3d9a6fa20bb904ac43bb9682820 *gd80-05-16s1t02.flac
53874aba7c5db0c3fe7fc8db9bc7ed39 *gd80-05-16s1t03.flac
038af4af1c48138034afe006e78fe71d *gd80-05-16s1t04.flac
8302a54a724bcf0e629413e1bf94fed3 *gd80-05-16s1t05.flac
f1344f02dbcd0a87b35f43f074447dcc *gd80-05-16s1t06.flac
bed08bdbbc1dac8195cf84af5a8395fc *gd80-05-16s1t07.flac
be019ab76f32e2f59ae1cbe954211ca6 *gd80-05-16s1t08.flac
aee65ddbd38d44b3fe9cfda6205e5fde *gd80-05-16s1t09.flac
fb78cce7008e4148e815a7cd8b5a289c *gd80-05-16s1t10.flac
52def01f386713b5d8b5ace3ebc8ca7c *gd80-05-16s1t11.flac
7bf1a4635036f21bf21adeccabae9db0 *gd80-05-16s1t12.flac
73e5ed306e7d1b7f94853f664330d824 *gd80-05-16s2t01.flac
00c75107de18e7b3ace38570ba0de565 *gd80-05-16s2t02.flac
a0006b2a519f0b1982dab44afbaa06f6 *gd80-05-16s2t03.flac
b37ccdab0e7da4f4f694bd2b8b5a1011 *gd80-05-16s2t04.flac
b17eff4ed93a96d22f5ae05a7b9d5656 *gd80-05-16s2t05.flac
55c357a3547712d7fcc182e47bb6d993 *gd80-05-16s2t06.flac
487db48c0b0ed691db7849454dae7b61 *gd80-05-16s2t07.flac
baa289789b0ce7109b36b1ff913c931a *gd80-05-16s2t08.flac
e78770f594eee4144f139661126b801f *gd80-05-16s2t09.flac
343d4d46eba7d601792c2ef6c01d5fce *gd80-05-16s2t10.flac
fa971e8fcf93a6a74478403eff03ab8f *gd80-05-16s2t11.flac
cdca9ec184fb79a3fabf973834fe094a *gd80-05-16s2t12.flac
9fb5c3732d6ffd8ccc941e3b6bc0de6f *gd80-05-16s2t13.flac
ffp
gd80-05-16s1t01.flac:acb35847f3781d3c1dcb9ebdca7b8cf6
gd80-05-16s1t02.flac:badc187c2f61d1dd14eda7f675c4ec19
gd80-05-16s1t03.flac:61f2ff0e6bfe536ae8f933e4ccef1938
gd80-05-16s1t04.flac:9077bb2de49d6b592411a22682025514
gd80-05-16s1t05.flac:18351ced689bd5d90a695e63dab9d839
gd80-05-16s1t06.flac:49004df95eb06b72161797718b17d556
gd80-05-16s1t07.flac:69d8172461cfc6434910a86ba6fc2aa3
gd80-05-16s1t08.flac:548da190155647217ebc97f39b7c66fc
gd80-05-16s1t09.flac:d971046a13fbbe5df525f253159221ee
gd80-05-16s1t10.flac:95df4a7d402bb0f8c73850c13d1e7b9b
gd80-05-16s1t11.flac:beaa5c28a6a0a5ee63e036686e17a427
gd80-05-16s1t12.flac:c5de9dc14a83fedb0fef8187620aebf2
gd80-05-16s2t01.flac:1c4229ef8ddd647e4d58898070a6292f
gd80-05-16s2t02.flac:ac859852beef47ae5f68d9cdad4747d6
gd80-05-16s2t03.flac:eb80c17a55845ebfbe943ba43f977621
gd80-05-16s2t04.flac:589aa2b1525cf9a1e700f3ed1dc9478a
gd80-05-16s2t05.flac:37d10570ffa1b663fec28c009705f59c
gd80-05-16s2t06.flac:bc3c548bb355ea85e8a85848db7fd11c
gd80-05-16s2t07.flac:115cb72e8d1cef52b11a3efdeeab5ebf
gd80-05-16s2t08.flac:ae3bd89b1719ed8950cdd7b60b46929c
gd80-05-16s2t09.flac:256f31530239086994ce7b3e0ca5cd00
gd80-05-16s2t10.flac:bc345bbeec207aab6b31371af332c492
gd80-05-16s2t11.flac:dd5f119da5b63b9319f675a69664948c
gd80-05-16s2t12.flac:7ff348a4f21c3123c39a276421401068
gd80-05-16s2t13.flac:488bca7ae55787ef32d60d5cb75678e8

Comments
Add Comment
Other Sources (comments)
Master Soundboard Cassette... (1) flac16; Source 1:... (0) flac16; Source: 3... (0) flac16; Taper: Gerry... (0) flac16; Source: FOB... (0) flac24; Recording by... (0)
Date User Comment