Browse Collections Artists Sources   Search Dates

Add Show    List Management    Help


Grateful Dead 09/03/80
Springfield Civic Center, Springfield, MA
Comments Add Comment    Source Collectors    Add to Collection    Add to Want List    History
Source # 126722 Other Sources
Entered by Matt Vernon
Checksums orig-md5 , orig-ffp , ffp , flac-md5
Disc Counts 0 / 0
Media Size Compressed: 3.22 GB (3461712685 bytes)
Uncompressed: 4.98 GB (5342973738 bytes)
Date Circulated
Date Added
01/13/2014
01/13/2014
Source Summary flac24; Recording by Jim Wise & Eddie Claridge; Master Audience Cassette; Sony ecm 280's > Sony D-5 FOB; Transfer and FLAC encoding by David Minches: 1-10-14; Master played back on Nakamichi Dragon > Korg MR-1000(DSF [1-bit 5.6448 MHz Stereo]) Korg AudioGate > WAV [24/96] > Adobe Audition 3.0> FLAC encoding 
  Archive
Source Information - Download Text | Download Zip
Grateful Dead
9/3/80
Civic Center
Springfield, MA


Recording by Jim Wise & Eddie Claridge:
Master Audience Cassette; Sony ecm-280's > Sony D-5 FOB

Transfer and FLAC encoding by David Minches:1-12-14
Master played back on Nakamichi Dragon > Korg MR-1000(DSF [1-bit 5.6448 MHz Stereo]) Korg AudioGate >
WAV [24/96] > Adobe Audition 3.0 > FLAC encoding

First 4 songs from original  transfer SHNID 12576
______________________________________________________________________________________________________

--Set 1--
s1t01 - Mississippi Half-Step Uptown Toodeloo >
s1t02 - Franklin's Tower >
s1t03 - Mama Tried >
s1t04 - Mexicali Blues
s1t05 - Althea >
s1t06 - Little Red Rooster
s1t07 - Candyman
s1t08 - Easy To Love You
s1t09 - Let It Grow >
s1t10 - Deal

--Set 2--
s2t01 - Tuning
s2t02 - Feel Like a Stranger
s2t03 - High Time
s2t04 - Lost Sailor >
s2t05 - Saint of Circumstance >
s2t06 - Jam >
s2t07 - Drums
s2t08 - Space >
s2t09 - He's Gone >
s2t10 - Truckin' >
s2t11 - Black Peter >
s2t12 - Around & Around >
s2t13 - Johnny B. Goode

--Encore--
s2t14 - Brokedown Palace
______________________________________________________________________________________________________

Tagging notes:
Show information is embedded within the header of each flac file.
It will display on any player capable of directly playing flac files.
If converted to wav during processing, all tags will be stripped,
however audio data will remain unaffected.
If you must transcode to a lossy format, do so directly Flac > Lossy.
Use ffp to validate audio integrity.
Md5 values will change if tagging is altered.
B. Proctor 1/13/2014
______________________________________________________________________________________________________

    length     expanded size    cdr  WAVE problems  fmt   ratio  filename
     9:01.385     311837912 B   cxx   --   ---xx   flac  0.5983  s01t01 - Mississippi Half-Step.flac
     9:01.720     312030764 B   cxx   --   ---xx   flac  0.6077  s01t02 - Franklin's Tower.flac
     2:23.360      82575404 B   cxx   --   ---xx   flac  0.6128  s01t03 - Mama Tried.flac
     5:48.573     200777894 B   cxx   --   ---xx   flac  0.6165  s01t04 - Mexicali Blues.flac
     7:44.371     267477728 B   cxx   --   ---xx   flac  0.6511  s01t05 - Althea.flac
     8:01.869     277556714 B   cxx   --   ---xx   flac  0.6569  s01t06 - Little Red Rooster.flac
     7:52.092     271924754 B   cxx   --   ---xx   flac  0.6450  s01t07 - Candyman.flac
     4:02.503     139681868 B   cxx   --   ---xx   flac  0.6545  s01t08 - Easy To Love You.flac
    10:34.971     365743436 B   cxx   --   ---xx   flac  0.6570  s01t09 - Let It Grow.flac
     4:29.745     155373194 B   cxx   --   ---xx   flac  0.6597  s01t10 - Deal.flac
     1:45.588      60818978 B   cxx   --   ---xx   flac  0.6248  s02t01 - Tuning.flac
    11:10.495     386205110 B   cxx   --   ---xx   flac  0.6587  s02t02 - Feel Like A Stranger.flac
     8:21.604     288924236 B   cxx   --   ---xx   flac  0.6425  s02t03 - High Time.flac
     6:44.085     232753226 B   cxx   --   ---xx   flac  0.6436  s02t04 - Lost Sailor.flac
     8:34.383     296284838 B   cxx   --   ---xx   flac  0.6636  s02t05 - Saint of Circumstance.flac
     2:41.358      92942486 B   cxx   --   ---xx   flac  0.6350  s02t06 - Jam.flac
    10:15.173     354339626 B   cxx   --   ---xx   flac  0.6386  s02t07 - Drums.flac
     2:14.602      77530922 B   cxx   --   ---xx   flac  0.6451  s02t08 - Space.flac
    10:07.109     349695098 B   cxx   --   ---xx   flac  0.6495  s02t09 - He's Gone.flac
     7:19.274     253021808 B   cxx   --   ---xx   flac  0.6746  s02t10 - Truckin'.flac
     8:50.014     305288348 B   cxx   --   ---xx   flac  0.6503  s02t11 - Black Peter.flac
     3:50.096     132535388 B   cxx   --   ---xx   flac  0.6667  s02t12 - Around and Around.flac
     5:37.895     194627318 B   cxx   --   ---xx   flac  0.6702  s02t13 - Johnny B. Goode.flac
     5:29.394     189731060 B   cxx   --   ---xx   flac  0.6358  s02t14 - Brokedown Palace.flac
   162:01.662    5599678110 B                            0.6451  (24 files)




Show Checksums
orig-md5
9fbd03cdc24d89e6a9fc748eae9a8c0f *s01t01 - Mississippi Half-Step.flac
c69e3573c1568f2cdf137ddcb96d5dad *s01t02 - Franklin's Tower.flac
623cfb5caa6cdc1c7d3fa35c1a3bea4f *s01t03 - Mama Tried.flac
e5166a773902ebd7f6e800f148feadc2 *s01t04 - Mexicali Blues.flac
56e9a6a09fc871d123ef5121811c66ca *s01t05 - Althea.flac
eb58af4a67504e5d3ff7f82c2d6d5202 *s01t06 - Little Red Rooster.flac
918e780a978a5a6c442c810835c1369f *s01t07 - Candyman.flac
e1f7d708704fc3104e76bbb34aead737 *s01t08 - Easy To Love You.flac
2e6c54a2fefaeabf1fd7e6eb822a2934 *s01t09 - Let It Grow.flac
2f725cb92e2fedba262c7f55b2e62089 *s01t10 - Deal.flac
6ae5e447e8c5ba3041c2ffb064b98b32 *s02t01 - Tuning.flac
667b2fa2d7567497ad82f1c43a59e750 *s02t02 - Feel Like A Stranger.flac
30b0bb1a4edcb676ba0e60cd0959f1b5 *s02t03 - High Time.flac
9c419e8689ab2715107e81773fc9ecbe *s02t04 - Lost Sailor.flac
b19e533ff565c5abbd27ed5e71f230d1 *s02t05 - Saint of Circumstance.flac
ceaeb38c542ec89135aa5c043eb50e09 *s02t06 - Jam.flac
250c1f3e5a75ea67df93a8b56b1cb329 *s02t07 - Drums.flac
1f9f79bbdbfeeff625cdf1c0b32a3e6b *s02t08 - Space.flac
ea2b6cfca5cb8564d93e1e5d1a3d9418 *s02t09 - He's Gone.flac
f69ae0034e02e63e6cbb7488a76e6ee1 *s02t10 - Truckin'.flac
7ed8e760ef825b4df0c236cb96f3057d *s02t11 - Black Peter.flac
00167fe2a785a7c6e97ca0214cb4fcc5 *s02t12 - Around and Around.flac
ecd68c773dc44145e72c29780c441598 *s02t13 - Johnny B. Goode.flac
c66a08ea638cddfa39a291d9d04b1f35 *s02t14 - Brokedown Palace.flac
orig-ffp
s01t01 - Mississippi Half-Step.flac:795e9fc707110af70801575d21ac34ae
s01t02 - Franklin's Tower.flac:d0d1e22b9705431f4d278b147cea0032
s01t03 - Mama Tried.flac:3b74fff60f07ed37ff953b83f28d9582
s01t04 - Mexicali Blues.flac:63f10cd70ea3f7162b801845cf2d407c
s01t05 - Althea.flac:1bef7119e76a7fb5f34273a89d4e0429
s01t06 - Little Red Rooster.flac:92347d0c50af208fde00b9d5a653c715
s01t07 - Candyman.flac:7d6c579aa44b15b94710ec16f345a03c
s01t08 - Easy To Love You.flac:8057f8018e6c82594e0dd3b8b7abc5c8
s01t09 - Let It Grow.flac:e99ec9e5bc3b9f8e9dd2146f4d16cdec
s01t10 - Deal.flac:6f40fe4613a27a075e69c7d7380bcf37
s02t01 - Tuning.flac:080b309d0c551e9199d90596eaaf9c01
s02t02 - Feel Like A Stranger.flac:c9e24e00a839ba78e6b263ef2b5fe1cd
s02t03 - High Time.flac:a0fd536826f65055bdaca7ab104a175c
s02t04 - Lost Sailor.flac:bf9da4d68e4ce68f8cb68523b3ddb2af
s02t05 - Saint of Circumstance.flac:9ca98e86b15c49c9abc90b42eb9faeb5
s02t06 - Jam.flac:2e6c618712b26f7f9543932389b83252
s02t07 - Drums.flac:c5ae33529ac21647481e5300ca912bfc
s02t08 - Space.flac:c0e4a64dcf3190888d76025ca3726c5b
s02t09 - He's Gone.flac:c447d5b6614ccb47c016c8acaa5a84ed
s02t10 - Truckin'.flac:c8774fe3a11bc3535fc662511bec4a91
s02t11 - Black Peter.flac:bb8506eb1a5c58d230ea66f7c2d6daf2
s02t12 - Around and Around.flac:9466e1b486a817c86057ee94272427bf
s02t13 - Johnny B. Goode.flac:7666b4ff476067a89624952c990af6fe
s02t14 - Brokedown Palace.flac:c2cce082b981f5c98dc29034bebd71af
ffp
d01t01.flac:795e9fc707110af70801575d21ac34ae
d01t02.flac:d0d1e22b9705431f4d278b147cea0032
d01t03.flac:3b74fff60f07ed37ff953b83f28d9582
d01t04.flac:63f10cd70ea3f7162b801845cf2d407c
d01t05.flac:1bef7119e76a7fb5f34273a89d4e0429
d01t06.flac:92347d0c50af208fde00b9d5a653c715
d01t07.flac:7d6c579aa44b15b94710ec16f345a03c
d01t08.flac:8057f8018e6c82594e0dd3b8b7abc5c8
d01t09.flac:e99ec9e5bc3b9f8e9dd2146f4d16cdec
d01t10.flac:6f40fe4613a27a075e69c7d7380bcf37
d02t01.flac:080b309d0c551e9199d90596eaaf9c01
d02t02.flac:c9e24e00a839ba78e6b263ef2b5fe1cd
d02t03.flac:a0fd536826f65055bdaca7ab104a175c
d02t04.flac:bf9da4d68e4ce68f8cb68523b3ddb2af
d02t05.flac:9ca98e86b15c49c9abc90b42eb9faeb5
d02t06.flac:2e6c618712b26f7f9543932389b83252
d02t07.flac:c5ae33529ac21647481e5300ca912bfc
d02t08.flac:c0e4a64dcf3190888d76025ca3726c5b
d02t09.flac:c447d5b6614ccb47c016c8acaa5a84ed
d02t10.flac:c8774fe3a11bc3535fc662511bec4a91
d02t11.flac:bb8506eb1a5c58d230ea66f7c2d6daf2
d02t12.flac:9466e1b486a817c86057ee94272427bf
d02t13.flac:7666b4ff476067a89624952c990af6fe
d02t14.flac:c2cce082b981f5c98dc29034bebd71af
flac-md5
9fbd03cdc24d89e6a9fc748eae9a8c0f *d01t01.flac
c69e3573c1568f2cdf137ddcb96d5dad *d01t02.flac
623cfb5caa6cdc1c7d3fa35c1a3bea4f *d01t03.flac
e5166a773902ebd7f6e800f148feadc2 *d01t04.flac
56e9a6a09fc871d123ef5121811c66ca *d01t05.flac
eb58af4a67504e5d3ff7f82c2d6d5202 *d01t06.flac
918e780a978a5a6c442c810835c1369f *d01t07.flac
e1f7d708704fc3104e76bbb34aead737 *d01t08.flac
2e6c54a2fefaeabf1fd7e6eb822a2934 *d01t09.flac
2f725cb92e2fedba262c7f55b2e62089 *d01t10.flac
6ae5e447e8c5ba3041c2ffb064b98b32 *d02t01.flac
667b2fa2d7567497ad82f1c43a59e750 *d02t02.flac
30b0bb1a4edcb676ba0e60cd0959f1b5 *d02t03.flac
9c419e8689ab2715107e81773fc9ecbe *d02t04.flac
b19e533ff565c5abbd27ed5e71f230d1 *d02t05.flac
ceaeb38c542ec89135aa5c043eb50e09 *d02t06.flac
250c1f3e5a75ea67df93a8b56b1cb329 *d02t07.flac
1f9f79bbdbfeeff625cdf1c0b32a3e6b *d02t08.flac
ea2b6cfca5cb8564d93e1e5d1a3d9418 *d02t09.flac
f69ae0034e02e63e6cbb7488a76e6ee1 *d02t10.flac
7ed8e760ef825b4df0c236cb96f3057d *d02t11.flac
00167fe2a785a7c6e97ca0214cb4fcc5 *d02t12.flac
ecd68c773dc44145e72c29780c441598 *d02t13.flac
c66a08ea638cddfa39a291d9d04b1f35 *d02t14.flac

Comments
Add Comment
Other Sources (comments)
Fixed reseed; FOB by Jim... (6) MAC > ? > CD > EAC > SHNv3;... (0) flac16; (FOB)... (0) flac24;FOB AUD: 2x... (1) flac16:FOB AUD: 2x... (1) flac24; (FOB)... (0) flac24; Source Info:... (0) flac16/48kHz; Source... (0)
Date User Comment