Browse Collections Artists Sources   Search Dates

Add Show    List Management    Help


Grateful Dead 05/11/80
Cumberland County Civic Center, Portland, ME
Comments Add Comment    Source Collectors    Add to Collection    Add to Want List    History
Source # 126880 Other Sources
Entered by Matt Vernon
Checksums ffp , flac-md5
Disc Counts 0 / 0
Media Size Compressed: 1.09 GB (1170378588 bytes)
Uncompressed: 1.61 GB (1728724336 bytes)
Date Circulated
Date Added
01/29/2014
01/29/2014
Source Summary flac16; 2 Source Matrix By Dave Usborne;soundboard (shnid:89577); Transfers and Mastering By Charlie Miller;Recording Info:SBD -> Cassette Master -> Cassette -> Dat -> CD; Transfer Info:CD -> Samplitude Professional v10.02 -> Cool Edit Pro v2.0 -> FLAC; Audience (shnid:98929);Recorded by Steve Rolfe;2 Nak 700s> Sony TC-D5;Transfer and FLAC encoding by David Minches:Master played back on Nak Dragon> Grace Lunatec V3 (24/96)> Digital Audio Labs Card Deluxe> Adobe Audition 2.0> (dither/downsample)> FLAC encoding 
  Archive
Source Information - Download Text | Download Zip
Grateful Dead
May 11, 1980
Cumberland County Civic Center
Portland, ME

2 Source Matrix

Soundboard (shnid:89577)
--------------------------------------------------------------------------------
gd1980-05-11.sbd.miller.89577.sbeok.flac16

Recording Info:
SBD -> Cassette Master -> Cassette -> Dat -> CD

Transfer Info:
CD -> Samplitude Professional v10.02 -> Cool Edit Pro v2.0 -> FLAC
(3 Discs Audio / 2 Discs FLAC)

All Transfers and Mastering By Charlie Miller
[email protected]
January 20, 2008

Patch Info:
(FOB) Nakamichi 700 -> Cassette Master -> Dat -> CD (shnid=19266) supplies:
Alabama Getaway (0:00 - 0:11)
It's All Over Now (7:25 - end of track)
Easy To Love You (0:00 - 0:05) (3:20 - 4:23)
Set Break Announcement At End Of Set 1
Scarlet Begonias (0:00 - 0:10)
Terrapin Station (11:44 - end of track)
Playing In The Band (8:29 - end of track)
Drums (0:00 - 2:25)
Crowd Noise At End Of 2nd Set Before Encore
Brokedown Palace (complete track)

Notes:
-- Set 2 is seamless
-- I am pretty sure that the SBD has one more Cassette gen in it
-- Channels were swapped which is now fixed
-- Patch source recorded by Steve Rolfe
-- This is a repatch and remaster of shnid=13087
-- Thanks to Joe B. Jones for his help with the pitch correction (+1.2%)

Audience (shnid:98929)
--------------------------------------------------------------------------------
gd1980-05-11.nak700.rolfe.minches.98929.flac16

Recorded by Steve Rolfe; 2 Nak 700s> Sony TC-D5

Transfer and FLAC encoding by David Minches:
Master played back on Nak Dragon> Grace Lunatec V3 (24/96)> Digital Audio Labs
Card Deluxe> Adobe Audition 2.0> (dither/downsample)> FLAC encoding

This is the 16 bit/44.1 kHz version.

Thanks to Joe B. Jones for pitch correction.
--------------------------------------------------------------------------------
---Thank you Charlie Miller for your work on the SBD.
---Thank you Steve Rolfe for recording the show.
---Thank you David Minches for your AUD. transfer.
---Thank you Joe B. Jones for pitch correction.
---Thank you XJ32 for the art work.
---Thank you Germain for your advice, encouragement, guidance and seeding.

Matrix by dusborne

01-23-2014
--------------------------------------------------------------------------------

Set 1

101 - gd80-05-11s1t01 - Tuning
102 - gd80-05-11s1t02 - Alabama Getaway ->
103 - gd80-05-11s1t03 - Promised Land
104 - gd80-05-11s1t04 - They Love Each Other
105 - gd80-05-11s1t05 - Cassidy
106 - gd80-05-11s1t06 - Loser
107 - gd80-05-11s1t07 - It's All Over Now
108 - gd80-05-11s1t08 - Easy To Love You
109 - gd80-05-11s1t09 - Big Railroad Blues
110 - gd80-05-11s1t10 - Looks Like Rain
111 - gd80-05-11s1t11 - Don't Ease Me In
112 - gd80-05-11s1t12 - The Music Never Stopped

Set 2

201 - gd80-05-11s2t01 - Tuning
202 - gd80-05-11s2t02 - Scarlet Begonias ->
203 - gd80-05-11s2t03 - Fire On The Mountain
204 - gd80-05-11s2t04 - Feel Like A Stranger ->
205 - gd80-05-11s2t05 - Terrapin Station ->
206 - gd80-05-11s2t06 - Playing In The Band ->
207 - gd80-05-11s2t07 - Drums ->
208 - gd80-05-11s2t08 - Space ->
209 - gd80-05-11s2t09 - Black Peter ->
210 - gd80-05-11s2t10 - Goin' Down The Road Feeling Bad ->
211 - gd80-05-11s2t11 - Around And Around ->
212 - gd80-05-11s2t12 - Johnny B. Goode

Encore
213 - gd80-05-11s2t13 - Brokedown Palace* Audience Only
--------------------------------------------------------------------------------
Tagging notes:
Show information is embedded within the header
of each flac file. It will display on any player
capable of directly playing flac files.
If converted to wav during processing, all tags
will be stripped, however audio data will remain
unaffected. If you must transcode to a lossy format,
do so directly Flac > Lossy.
Use st5 to validate audio integrity.
Md5 values will change if tagging is altered.

Dave Usborne 01-23-2014
--------------------------------------------------------------------------------
length     expanded size    cdr  WAVE problems  fmt   ratio  filename
     1:32.00       16228844 B   ---   --   ---xx   flac  0.6605  gd80-05-11s1t01.flac
     4:34.41       48430076 B   ---   --   ---xx   flac  0.7043  gd80-05-11s1t02.flac
     5:17.72       56088188 B   ---   --   ---xx   flac  0.6982  gd80-05-11s1t03.flac
     7:54.30       83684204 B   ---   --   ---xx   flac  0.6856  gd80-05-11s1t04.flac
     6:11.52       65566748 B   ---   --   ---xx   flac  0.6812  gd80-05-11s1t05.flac
     8:48.00       93139244 B   ---   --   ---xx   flac  0.6786  gd80-05-11s1t06.flac
     9:08.45       96773084 B   ---   --   ---xx   flac  0.6849  gd80-05-11s1t07.flac
     4:30.38       47717420 B   ---   --   ---xx   flac  0.6793  gd80-05-11s1t08.flac
     4:48.22       50854988 B   ---   --   ---xx   flac  0.7113  gd80-05-11s1t09.flac
    10:13.30      108203804 B   ---   --   ---xx   flac  0.7193  gd80-05-11s1t10.flac
     3:15.15       34433324 B   ---   --   ---xx   flac  0.7072  gd80-05-11s1t11.flac
     7:52.23       83314940 B   ---   --   ---xx   flac  0.7065  gd80-05-11s1t12.flac
     1:55.00       20286044 B   ---   --   ---xx   flac  0.6543  gd80-05-11s2t01.flac
     6:42.68       71072780 B   ---   --   ---xx   flac  0.6856  gd80-05-11s2t02.flac
    11:52.07      125613308 B   ---   --   ---xx   flac  0.6825  gd80-05-11s2t03.flac
     7:30.30       79450604 B   ---   --   ---xx   flac  0.6759  gd80-05-11s2t04.flac
    12:08.49      128534492 B   ---   --   ---xx   flac  0.6693  gd80-05-11s2t05.flac
     9:08.61       96810716 B   ---   --   ---xx   flac  0.6807  gd80-05-11s2t06.flac
     4:56.70       52379084 B   ---   --   ---xx   flac  0.6335  gd80-05-11s2t07.flac
     3:07.15       33022124 B   ---   --   ---xx   flac  0.5816  gd80-05-11s2t08.flac
     9:14.38       97815020 B   ---   --   ---xx   flac  0.6407  gd80-05-11s2t09.flac
     7:06.45       75252284 B   ---   --   ---xx   flac  0.6781  gd80-05-11s2t10.flac
     3:56.67       41788028 B   ---   --   ---xx   flac  0.6723  gd80-05-11s2t11.flac
     6:00.00       63504044 B   ---   --   ---xx   flac  0.6756  gd80-05-11s2t12.flac
     6:03.01       64035596 B   ---   --   ---xx   flac  0.6032  gd80-05-11s2t13.flac
   163:49.69     1733998988 B                            0.6772  (25 files)


Show Checksums
ffp
gd80-05-11s1t01.flac:d70b7d38ea2c3d7fe52344daea043e3a
gd80-05-11s1t02.flac:7ec715b319b2729eb016405ac6c70c6d
gd80-05-11s1t03.flac:9f178f55c71bba201c18785adf224788
gd80-05-11s1t04.flac:d3390357763e214b11d87606ffd20919
gd80-05-11s1t05.flac:efb4cc09d2cb4d552385889eabd7e917
gd80-05-11s1t06.flac:621a2272e03b1822f5e7abf56a1a1f60
gd80-05-11s1t07.flac:8298d458ad28c5442bddaafdfdb9c5d2
gd80-05-11s1t08.flac:e63bd20cce0863e77d1ab15331d8ba75
gd80-05-11s1t09.flac:afc80a3a525538e602a28abebcd1ec1f
gd80-05-11s1t10.flac:17ff281131d0dc02dffcc9241ede21ea
gd80-05-11s1t11.flac:fe7ec63d07c3daa5a0cbcdc5d98ba9fa
gd80-05-11s1t12.flac:0d8d1c618cdcb14ace48754330c40f76
gd80-05-11s2t01.flac:bf0250b91bcbb9c07fe05b041cd15890
gd80-05-11s2t02.flac:eca2df83cccd1f2135a1cbc8d897b993
gd80-05-11s2t03.flac:0b1bd0fd3007a204d60a267e0fadd95c
gd80-05-11s2t04.flac:b60fd890c7190404b86b277c107973eb
gd80-05-11s2t05.flac:aee37f6bc51b2fd07842c817f433a8f7
gd80-05-11s2t06.flac:bd878a5afdc653033602808b0bed9d31
gd80-05-11s2t07.flac:1f9eb3fe610f77fed8212cad44fa6d2e
gd80-05-11s2t08.flac:7d58de00b74c71a232dbf61f9e8772d8
gd80-05-11s2t09.flac:2b0a61edf2ceb92c44a501f818ec9d3a
gd80-05-11s2t10.flac:330d34469b0dfba28b8144693cdfdb0e
gd80-05-11s2t11.flac:77825dc7e54f1188e069561b0947db53
gd80-05-11s2t12.flac:87b5477907f2039f9d8db764b9a828ce
gd80-05-11s2t13.flac:654064b880a7a553afc7eeb9a5a8a7e0
flac-md5
6b6858caad726dd04577df5115f445b8 *gd80-05-11s1t01.flac
682a5986ad6317d5b2696bcbd0385c71 *gd80-05-11s1t02.flac
8349cbcd1205e1a6ced83120293b86fb *gd80-05-11s1t03.flac
d4d4063c12f163bc9ea5b093d1e485dd *gd80-05-11s1t04.flac
b1c82ac8fe5b40be70dea42a32001470 *gd80-05-11s1t05.flac
57af8a49829c139f3726f22a2053c5e8 *gd80-05-11s1t06.flac
7ff775fd1f32a0d7ca8af50059cfebb8 *gd80-05-11s1t07.flac
bab3f3d20ba6209f8f74e82172ff52ef *gd80-05-11s1t08.flac
61e04dbb459ced027564b044a6fcad02 *gd80-05-11s1t09.flac
60545693601123ff5c04d69fb0425c04 *gd80-05-11s1t10.flac
8c856f6ab9d4b942168f7d7d0032e45b *gd80-05-11s1t11.flac
29cef47f26c7b1e3e47a77480812a1dd *gd80-05-11s1t12.flac
72ce6b8f9037a59e21af9540b1776a27 *gd80-05-11s2t01.flac
bfbf93d46182cbadfe2981dead572d98 *gd80-05-11s2t02.flac
277704aa5741d2ee713aa0160d7d2935 *gd80-05-11s2t03.flac
cb42caca57ed08614e01bd36f14cff49 *gd80-05-11s2t04.flac
e2208422d6caacf15e2681957c1b75c4 *gd80-05-11s2t05.flac
1554a39691ffcbbde3d7ae38454e3604 *gd80-05-11s2t06.flac
1e6da8ce65191c7b642e3db2432e3d5f *gd80-05-11s2t07.flac
cb286f08ddebad27bedc31243f220bcc *gd80-05-11s2t08.flac
9eb7063689c432ee38845513672a7a3f *gd80-05-11s2t09.flac
5cd1caaf10302707464af41ea1614cb8 *gd80-05-11s2t10.flac
1fd591afd545109a85671f53a2e5c89b *gd80-05-11s2t11.flac
64f772133acfd024885b43bc7f9a2b4b *gd80-05-11s2t12.flac
17ecf639bbc43c054fd5a9f2730f423f *gd80-05-11s2t13.flac

Comments
Add Comment
Other Sources (comments)
Nak 300's>Sony D5>master... (0) SBD> C (Dick's master)> C... (2) Original (3) Recording by Steve Rolfe:... (0) SBD> C (Dick's master)> C... (2) flac16; SBD ->... (0) flac16; 2 x... (0) flac24; 2 x... (0) flac16; Recorded by... (0) flac16; Source:... (0) flac24; (FOB) Sony... (0) flac24; AUD: 2x... (2) flac16; AUD: 2x... (2)
Date User Comment