Browse Collections Artists Sources   Search Dates

Add Show    List Management    Help


Grateful Dead 11/30/79
Stanley Theater, Pittsburgh, PA
Comments Add Comment    Source Collectors    Add to Collection    Add to Want List    History
Source # 126893 Other Sources
Entered by Matt Vernon
Checksums ffp , flac-md5
Disc Counts 0 / 0
Media Size Compressed: 1.18 GB (1267015352 bytes)
Uncompressed: 1.91 GB (2050846883 bytes)
Date Circulated
Date Added
01/31/2014
01/31/2014
Source Summary flac16; 2 Source matrix by Dave Usborne;Soundboard (shnid:95832); All Transfers and Mastering By Charlie Miller;Recording Info:SBD -> Cassette Master (Sony TCD5M/UDXL-II) -> Dat (Panasonic SV3800/48k);Transfer Info:Dat (Sony D8) -> M-Audio Dio2448 -> Samplitude Professional v8.0 ->Adobe Audition v1.5 -> FLAC; Audience (shnid:76348);Taped and Transferred by Charlie Connor; Source: (FOB, 10th Row Center Stage)>Sony ECM 990>JVC 1636mkII(CM);Transfer:Nak DR-10 (Playback)>Midiman Flying Cow 24bit/48kHz A/D>RME Digi96/8>Steinberg's Wavelab 3.0 (bit resolution & resampling to CDR redbook 16/44.1>CDWav beta1.57 (tracking only)>SHNv3 (MKW ACT) 
  Archive
Source Information - Download Text | Download Zip
Grateful Dead
November 30, 1979
Stanley Theatre
Pittsburgh, PA

2 Source Matrix

Soundboard (shnid:95832)
--------------------------------------------------------------------------------
gd79-11-30.sbd.miller.95832.sbeok.flac16

Recording Info:
SBD -> Cassette Master (Sony TCD5M/UDXL-II) -> Dat (Panasonic SV3800/48k)

Transfer Info:
Dat (Sony D8) -> M-Audio Dio2448 -> Samplitude Professional v8.0 ->
Adobe Audition v1.5 -> FLAC
(3 Discs Audio / 2 Discs FLAC)

All Transfers and Mastering By Charlie Miller
[email protected]
November 17, 2008

Patch Info:
(FOB) Sony ECM-990 -> Cassette Master (shnid=76348) supplies:
El Paso (1:44 - 2:34)
Scarlet Begonias (0:00 - 0:27)
Playing In The Band (12:28 - end of track)
Drums (0:00 - 5:20)

Notes:
-- All disc changes are seamless
-- This is a remaster of shnid=29424
-- Thanks to Joe B. Jones for his help with the pitch correction

Audience (shnid:76348)
--------------------------------------------------------------------------------
gd1979-11-30.fob-sonyecm.connor.76348.flac16

Source:
(FOB, 10th Row Center Stage)>Sony ECM 990>JVC 1636mkII(CM)
Transfer:
Nak DR-10 (Playback)>Midiman Flying Cow 24bit/48kHz A/D>RME Digi96/8>
Steinberg's Wavelab 3.0 (bit resolution & resampling to CDR
redbook 16/44.1>CDWav beta1.57 (tracking only)>SHNv3 (MKW ACT)

Taped and Transferred by Charlie Connor

Seeded to Etree's BT August 4, 2006

Flac encoding notes:
All processing with Trader's Little Helper
Shn - st5 generated
Shn > Flac ( level 8 )
Flac - st5 generated and matched to Shn st5
B. Proctor 6-29-11
--------------------------------------------------------------------------------
---Thank you Charlie Miller for your work on the SBD.
---Thank you Charlie Connor for recording and sharing the show.
---Thank you Joe B. Jones for pitch correction.
---Thank you XJ32 for the art work.
---Thank you Germain for your advice, encouragement, guidance and seeding.

Matrix by dusborne

01-31-2014
-------------------------------------------------------------------------------

Set 1

101 - gd79-11-30s1t01 - Alabama Getaway ->
102 - gd79-11-30s1t02 - Greatest Story Ever Told
103 - gd79-11-30s1t03 - Peggy-O
104 - gd79-11-30s1t04 - Cassidy
105 - gd79-11-30s1t05 - Friend of the Devil
106 - gd79-11-30s1t06 - Easy to Love You ->
107 - gd79-11-30s1t07 - El Paso
108 - gd79-11-30s1t08 - Tennessee Jed
109 - gd79-11-30s1t09 - Dancing in the Streets ->
110 - gd79-11-30s1t10 - Deal

Set 2

201 - gd79-11-30s2t01 - Scarlet Begonias ->
202 - gd79-11-30s2t02 - Fire on the Mountain
203 - gd79-11-30s2t03 - Passenger
204 - gd79-11-30s2t04 - Terrapin Station ->
205 - gd79-11-30s2t05 - Playing in the Band ->
206 - gd79-11-30s2t06 - Drums ->
207 - gd79-11-30s2t07 - Space ->
208 - gd79-11-30s2t08 - Lost Sailor ->
209 - gd79-11-30s2t09 - Saint of Circumstance ->
210 - gd79-11-30s2t10 - Wharf Rat ->
211 - gd79-11-30s2t11 - Good Lovin'

Encore
212 - gd79-11-30s2t12 - Don't Ease Me In
--------------------------------------------------------------------------------
Tagging notes:
Show information is embedded within the header
of each flac file. It will display on any player
capable of directly playing flac files.
If converted to wav during processing, all tags
will be stripped, however audio data will remain
unaffected. If you must transcode to a lossy format,
do so directly Flac > Lossy.
Use st5 to validate audio integrity.
Md5 values will change if tagging is altered.

Dave Usborne 01-31-2014
--------------------------------------------------------------------------------
length     expanded size    cdr  WAVE problems  fmt   ratio  filename
     9:01.45       95538284 B   ---   --   ---xx   flac  0.6593  gd79-11-30s1t01.flac
     7:47.60       82519964 B   ---   --   ---xx   flac  0.6474  gd79-11-30s1t02.flac
     7:50.45       83013884 B   ---   --   ---xx   flac  0.6091  gd79-11-30s1t03.flac
     5:38.15       59658524 B   ---   --   ---xx   flac  0.6403  gd79-11-30s1t04.flac
    10:48.23      114361340 B   ---   --   ---xx   flac  0.6165  gd79-11-30s1t05.flac
     3:37.37       38365868 B   ---   --   ---xx   flac  0.6387  gd79-11-30s1t06.flac
     6:57.00       73558844 B   ---   --   ---xx   flac  0.5960  gd79-11-30s1t07.flac
    11:00.00      116424044 B   ---   --   ---xx   flac  0.6149  gd79-11-30s1t08.flac
    14:20.30      151774604 B   ---   --   ---xx   flac  0.6349  gd79-11-30s1t09.flac
     5:53.56       62400956 B   ---   --   ---xx   flac  0.6330  gd79-11-30s1t10.flac
    14:58.38      158496620 B   ---   --   ---xx   flac  0.6295  gd79-11-30s2t01.flac
    11:28.00      121363244 B   ---   --   ---xx   flac  0.6226  gd79-11-30s2t02.flac
     5:44.00       60681644 B   ---   --   ---xx   flac  0.6539  gd79-11-30s2t03.flac
    13:31.45      143166284 B   ---   --   ---xx   flac  0.6013  gd79-11-30s2t04.flac
    14:12.30      150363404 B   ---   --   ---xx   flac  0.6161  gd79-11-30s2t05.flac
     9:10.38       97109420 B   ---   --   ---xx   flac  0.5781  gd79-11-30s2t06.flac
     5:55.37       62709068 B   ---   --   ---xx   flac  0.5268  gd79-11-30s2t07.flac
     6:32.00       69148844 B   ---   --   ---xx   flac  0.5972  gd79-11-30s2t08.flac
     5:36.45       59376284 B   ---   --   ---xx   flac  0.6293  gd79-11-30s2t09.flac
    10:08.67      107408828 B   ---   --   ---xx   flac  0.5909  gd79-11-30s2t10.flac
     8:06.37       85817468 B   ---   --   ---xx   flac  0.6295  gd79-11-30s2t11.flac
     4:57.73       52562540 B   ---   --   ---xx   flac  0.6331  gd79-11-30s2t12.flac
   193:17.46     2045819960 B                            0.6178  (22 files)


Show Checksums
ffp
gd79-11-30s1t01.flac:f2a02d485bdc246dec7e72a630cc2edf
gd79-11-30s1t02.flac:76b3ce21cec2fbf5343adf8c608a3bd6
gd79-11-30s1t03.flac:c5d6d11afe2a3acfef96c02c2a0b8615
gd79-11-30s1t04.flac:936c22de4a4f37ba433bc14684fdff25
gd79-11-30s1t05.flac:a4a95c1db0c7ef073cc7be7b3bbd1c17
gd79-11-30s1t06.flac:11d8dfd6f3d7808c507f943e8bb3563f
gd79-11-30s1t07.flac:116e76059d30daa4ab3b7c0947b41b1b
gd79-11-30s1t08.flac:29a8ce6ab861efd6523dd3a5578eda56
gd79-11-30s1t09.flac:d65c097a70edcb2ddb7ecb392ed1cab4
gd79-11-30s1t10.flac:5c8c78f092c73a53d769a822cb80ba4f
gd79-11-30s2t01.flac:afe9874ebe88f7e97b87d8fa4dd85ff3
gd79-11-30s2t02.flac:2d163211c32d6c41f5bae5f6939fa9b1
gd79-11-30s2t03.flac:2433ea9c110b6d2bcaac186d2730a716
gd79-11-30s2t04.flac:cfc2a27fca61490f436dc0c213181e48
gd79-11-30s2t05.flac:7fdb43353165f0666056a233610ab0a0
gd79-11-30s2t06.flac:d3baada308c200385f6b91d7de992be4
gd79-11-30s2t07.flac:bf607d4ffaa1f9165ee429d1a30482c7
gd79-11-30s2t08.flac:ad03cedbd8a0932fd1b3dd86a3c5e0fb
gd79-11-30s2t09.flac:b5c190afab131995ced12e9c148bfda0
gd79-11-30s2t10.flac:febd5c88934e6af1ae37065bdef3ee04
gd79-11-30s2t11.flac:a9adf629f97d3478a504cc0c77e94c1a
gd79-11-30s2t12.flac:3cda9d2d4b743542423b400928f8360e
flac-md5
cecd17a02b0e88a198c0bd8b6aa68dd0 *gd79-11-30s1t01.flac
2d972651420a34e7fed034d911fb4ad3 *gd79-11-30s1t02.flac
1f674c3d948a6270dc82904fdbe5f4a6 *gd79-11-30s1t03.flac
0cc80d0c50e077a4089ee8cc6fd6eda6 *gd79-11-30s1t04.flac
5f4aad82bae95b6a9d88331ae0cd760f *gd79-11-30s1t05.flac
70d0cad63ba5b99228e7e5413551a057 *gd79-11-30s1t06.flac
4bc910464a1133550cb5eec5c313d4d9 *gd79-11-30s1t07.flac
be4860033cc94fb6c4eb54bee8966349 *gd79-11-30s1t08.flac
9a245bc3c01c11fa8d8a6322aa7a4866 *gd79-11-30s1t09.flac
c59c3e0e76c4f58513be30715a5ee0fc *gd79-11-30s1t10.flac
b21334f54eb6d94078389480762101c3 *gd79-11-30s2t01.flac
0af9ad87137eb42b07238d95f2b37ba5 *gd79-11-30s2t02.flac
7f6b84297256a53af278f3832fbcd6b2 *gd79-11-30s2t03.flac
5d55adb0bbb26eb5f4a94d52325c20c3 *gd79-11-30s2t04.flac
f1871a75d8778c60aa80bc81a79b6209 *gd79-11-30s2t05.flac
2f23b209a40fb50cea23dbf928b9b19d *gd79-11-30s2t06.flac
391aebf51e1cad6fe08e7e020a07ddd7 *gd79-11-30s2t07.flac
8d694a74ca4103c56e092b0da1592ffa *gd79-11-30s2t08.flac
81a3a2bf5e460873b46b40cbc3937176 *gd79-11-30s2t09.flac
fcdb823fddadab5de672975a9923edc2 *gd79-11-30s2t10.flac
6e0d9011a22ad83ad5b3ff232b017d3a *gd79-11-30s2t11.flac
a68aeb9b87db4397fe03592204dbc881 *gd79-11-30s2t12.flac

Comments
Add Comment
Other Sources (comments)
Master Soundboard Cassette... (1) Fixed version of... (0) SBD > DAT > CDREAC'ed /... (1) flac16; SBD ->... (2) Soundboard > Master... (0) Recording by Charlie... (1) flac16; Recording... (0)
Date User Comment