Browse Collections Artists Sources   Search Dates

Add Show    List Management    Help


Grateful Dead 10/29/80
Radio City Music Hall, New York, NY
Comments Add Comment    Source Collectors    Add to Collection    Add to Want List    History
Source # 126919 Other Sources
Entered by Matt Vernon
Checksums flac-md5 , ffp
Disc Counts 0 / 0
Media Size Compressed: 1.24 GB (1328541696 bytes)
Uncompressed: 2.11 GB (2267039980 bytes)
Date Circulated
Date Added
02/02/2014
02/02/2014
Source Summary flac16; AUD: 2x Beyer M160's > Sony TC-D5, Fifth row center orchestra. Transfer: MAC > Sony TC-KA3ES > Sound Devices USB Pre-2 > WAV 2496. Edits: WAV 2496 > Wavelab > R8Brain > CD-Wave > TLH > FLAC 1644 tagged. Concert recording & transfer by Richie Stankiewicz, edits by Andrew F. 02/2014 
  Archive
Source Information - Download Text | Download Zip
GRATEFUL DEAD
Radio City Music Hall
New York NY
10-29-1980

s1t01 Dire Wolf
s1t02 On the Road Again
s1t03 It Must Have Been the Roses
s1t04 The Race is On
s1t05 Birdsong
s1t06 Heaven Help the Fool
s1t07 Oh Babe It Ain't No Lie
s1t08 Ripple

s2t01 Feel Like a Stranger >
s2t02 Franklin's Tower
s2t03 Me & My Uncle >
s2t04 Big River
s2t05 Candyman >
s2t06 Little Red Rooster
s2t07 Tennessee Jed
s2t08 Looks Like Rain >
s2t09 Althea >
s2t10 The Music Never Stopped

s3t01 China Cat Sunflower >
s3t02 I Know You Rider >
s3t03 Estimated Prophet >
s3t04 Terrapin
s3t05 Drums >
s3t06 Space >
s3t07 The Wheel >
s3t08 Saint of Circumstance >
s3t09 Black Peter >
s3t10 Sugar Magnolia
s3t11 Encore: U.S. Blues

AUD: 2x Beyer M160's > Sony TC-D5, Fifth row center orchestra.

Transfer: MAC > Sony TC-KA3ES > Sound Devices USB Pre-2 > WAV 2496.

Edits: WAV 2496 > Wavelab > R8Brain > CD-Wave > TLH > FLAC 1644 tagged.

Concert recording & transfer by Richie Stankiewicz, edits by Andrew F. 02/2014

Notes: Patches from ID-101306; Heaven Help 0:00 > 0:12, OBIANL and Ripple
complete tracks, Rooster 9:35 > 9:47, Ten Jed 2:00 & 2:30 > 2:39, China Cat
5:31, Space 0:17 > 0:38. Up-close stealth recording with the usual intrusive
crowd noises. Light crackle MAMU thru Candyman, sounds like a blown speaker.

CDR: D1= Dire Wolf > Franklin's, D2= MAMU > IKYR, D3= Estimated > U.S. Blues.

    length     expanded size    cdr  WAVE problems  fmt   ratio  filename
     3:37.50       38396444 B   ---   --   ---xx   flac  0.5849  gd1980-10-29s1t01.flac
     3:43.18       39379580 B   ---   --   ---xx   flac  0.5644  gd1980-10-29s1t02.flac
     7:01.09       74285612 B   ---   --   ---xx   flac  0.5574  gd1980-10-29s1t03.flac
     3:29.68       37027580 B   ---   --   ---xx   flac  0.5609  gd1980-10-29s1t04.flac
     7:59.14       84528572 B   ---   --   ---xx   flac  0.5726  gd1980-10-29s1t05.flac
     6:22.45       67490684 B   ---   --   ---xx   flac  0.5809  gd1980-10-29s1t06.flac
     7:56.38       84055820 B   ---   --   ---xx   flac  0.5814  gd1980-10-29s1t07.flac
     4:46.51       50570396 B   ---   --   ---xx   flac  0.6139  gd1980-10-29s1t08.flac
     7:18.64       77413772 B   ---   --   ---xx   flac  0.6404  gd1980-10-29s2t01.flac
    10:49.06      114497756 B   ---   --   ---xx   flac  0.6285  gd1980-10-29s2t02.flac
     3:12.03       33875900 B   ---   --   ---xx   flac  0.6233  gd1980-10-29s2t03.flac
     6:10.07       65284508 B   ---   --   ---xx   flac  0.6234  gd1980-10-29s2t04.flac
     7:16.41       77006876 B   ---   --   ---xx   flac  0.5654  gd1980-10-29s2t05.flac
    12:04.09      127734812 B   ---   --   ---xx   flac  0.6095  gd1980-10-29s2t06.flac
     9:07.20       96537884 B   ---   --   ---xx   flac  0.6207  gd1980-10-29s2t07.flac
     8:09.35       86341964 B   ---   --   ---xx   flac  0.5900  gd1980-10-29s2t08.flac
     8:59.54       95206652 B   ---   --   ---xx   flac  0.5997  gd1980-10-29s2t09.flac
     8:25.64       89232572 B   ---   --   ---xx   flac  0.6442  gd1980-10-29s2t10.flac
     6:01.66       63835676 B   ---   --   ---xx   flac  0.6139  gd1980-10-29s3t01.flac
     5:46.73       61206140 B   ---   --   ---xx   flac  0.6344  gd1980-10-29s3t02.flac
    10:18.33      109092860 B   ---   --   ---xx   flac  0.5927  gd1980-10-29s3t03.flac
    12:16.52      129952748 B   ---   --   ---xx   flac  0.5735  gd1980-10-29s3t04.flac
     9:54.37      104868668 B   ---   --   ---xx   flac  0.4715  gd1980-10-29s3t05.flac
     6:22.68       67544780 B   ---   --   ---xx   flac  0.4184  gd1980-10-29s3t06.flac
     6:36.45       69960284 B   ---   --   ---xx   flac  0.5545  gd1980-10-29s3t07.flac
     6:20.15       67067324 B   ---   --   ---xx   flac  0.6132  gd1980-10-29s3t08.flac
     9:23.66       99468476 B   ---   --   ---xx   flac  0.5496  gd1980-10-29s3t09.flac
     9:02.50       95726444 B   ---   --   ---xx   flac  0.6180  gd1980-10-29s3t10.flac
     5:37.01       59449196 B   ---   --   ---xx   flac  0.5929  gd1980-10-29s3t11.flac
   214:11.52     2267039980 B                            0.5860  (29 files)

No errors occured.


Show Checksums
flac-md5
8a5d8afea3fd94b65338aea05beae272 *gd1980-10-29s1t01.flac
926843c6c05b004b95d61ab561f0bf1c *gd1980-10-29s1t02.flac
756f5e0df7dfae9dcb79d5e65ae6d9f4 *gd1980-10-29s1t03.flac
c13afb5ca73c3f4acbbd9f49f448251e *gd1980-10-29s1t04.flac
d64296637c671ae724ee5ef758dffe88 *gd1980-10-29s1t05.flac
bcc209fb3a990e37bcc45892e7237b09 *gd1980-10-29s1t06.flac
343a77b4fca453bdbf984c68bcb06380 *gd1980-10-29s1t07.flac
8d7b568e3b428cd32214043850c04f13 *gd1980-10-29s1t08.flac
cf0badab01cf2a6284f385b56d7e34c5 *gd1980-10-29s2t01.flac
30a81b17e71fb7a5e612939c491344d1 *gd1980-10-29s2t02.flac
2fecfda571bc4c7bb593ebbce828c57c *gd1980-10-29s2t03.flac
5f6ff5f0146409155ec81177bf8da51c *gd1980-10-29s2t04.flac
d969cdd32ad74606e1499fa59966e2e7 *gd1980-10-29s2t05.flac
32ed28e71fecb72f27612a08684bcda6 *gd1980-10-29s2t06.flac
ee86c76ba086edde70b6c1fa7e72a902 *gd1980-10-29s2t07.flac
1ac1d01e23bf748e2ed0ad49a0107dc9 *gd1980-10-29s2t08.flac
75d9eaef1333491332f94850e2d90f00 *gd1980-10-29s2t09.flac
513d5143342de4c85bb19b03b31df51d *gd1980-10-29s2t10.flac
f73987f902e097108a0ea82ffa2d6ba5 *gd1980-10-29s3t01.flac
fa282a4f329c8d50eeb8c691d3239c32 *gd1980-10-29s3t02.flac
cf0bc788f1bf19e732b7bb152fed3fea *gd1980-10-29s3t03.flac
a0ac3636840501134bea5399622e1023 *gd1980-10-29s3t04.flac
a5f046328a44171179e68f37625bf8da *gd1980-10-29s3t05.flac
932ae58184fda420142e1ec0e8a4d640 *gd1980-10-29s3t06.flac
2c8fa1c62995b85a48aa197cf2b4beeb *gd1980-10-29s3t07.flac
fe33f0a6c9e302709bdd77728e40781b *gd1980-10-29s3t08.flac
5342085b3d0a67dceeb578ae96ee995b *gd1980-10-29s3t09.flac
b8c1fd82b6f8e9ffee81aadde0f36bba *gd1980-10-29s3t10.flac
4192b3f7cc9c3d536b61e2eb259de62d *gd1980-10-29s3t11.flac
ffp
gd1980-10-29s1t01.flac:a9fb3f996ea4a0a5369d424ec58359cb
gd1980-10-29s1t02.flac:b05b816e1e7ec1d31800ee250b358c16
gd1980-10-29s1t03.flac:b485582e3942068acbcc4972a0f1313b
gd1980-10-29s1t04.flac:2d2fce84a8c188f7651ab2b4a26b4c50
gd1980-10-29s1t05.flac:fff32906874eb624993322d14b124cdb
gd1980-10-29s1t06.flac:f7e5108dbd4c828166b82fe4c1546d24
gd1980-10-29s1t07.flac:50f446e364a0b2146b57598d30c06bc7
gd1980-10-29s1t08.flac:c2ed790f2a3dcb988014e20f17eaef94
gd1980-10-29s2t01.flac:0cc0f3e43fbf22ed59438e32d3db05af
gd1980-10-29s2t02.flac:bbdf43a7da84e21047fc0b004254509e
gd1980-10-29s2t03.flac:c71443e23041651b3fe100d15a70101a
gd1980-10-29s2t04.flac:cbb0fd6382fa6bc300544347acc80f4f
gd1980-10-29s2t05.flac:887c8ca7da3e431b3c8b7911eb684811
gd1980-10-29s2t06.flac:fdf996b636cfea65ae9aae86dc37d7bd
gd1980-10-29s2t07.flac:2ba2ff0c1acc48f7fac2344bf2c1f958
gd1980-10-29s2t08.flac:9d6032a6377cf98e5d4762d4008988bb
gd1980-10-29s2t09.flac:bf9e16268987074ec2d9e065c2838e19
gd1980-10-29s2t10.flac:bf7caa582e6646a99aaaafd761bece61
gd1980-10-29s3t01.flac:7d5a719e944ba9736bee000064537122
gd1980-10-29s3t02.flac:ea5f5dd299339962f4fbdf5394701b23
gd1980-10-29s3t03.flac:28bd19d583ba826bf73703384fa8af78
gd1980-10-29s3t04.flac:5b21b6b2e4e690126653d5dc8f2abc2d
gd1980-10-29s3t05.flac:d54af3708ca2c234f51095c7c6c8e4bd
gd1980-10-29s3t06.flac:dd2174ecac29e288b586a655f1737735
gd1980-10-29s3t07.flac:0a70c68b3b0b034eea3cbb28338c0179
gd1980-10-29s3t08.flac:b84b3d2325b1722c6464f650004143aa
gd1980-10-29s3t09.flac:80cbfd1b5876c3424bf5e5963e7ae656
gd1980-10-29s3t10.flac:171bc78c98ff4cafd3e3f517acfd8fe0
gd1980-10-29s3t11.flac:6edb2678757217a9ad8dc6667fc14a8d

Comments
Add Comment
Other Sources (comments)
Recording by Jim Wise:... (2) flac16; **Partial... (0) flac16; Seamless... (1) flac16; Recording... (0) flac16; Loge Dead... (1) flac16; Partial... (0) flac16; Partial Sets... (0) flac24; partial set... (0) flac16; partial set... (0) flac16; SBD DAT->... (0)
Date User Comment