Browse Collections Artists Sources   Search Dates

Add Show    List Management    Help


Phil Lesh & Friends 12/13/13
Asheville Civic Center, Asheville, NC
Comments Add Comment    Source Collectors    Add to Collection    Add to Want List    History
Source # 126980 Other Sources
Entered by Matt Vernon
Checksums flac-md5 , ffp
Disc Counts 0 / 0
Media Size
Date Circulated
Date Added

02/08/2014
Source Summary Source: FOB-2x Beyerdynamic MC930's(Matched Stereo Pair)>Tascam [email protected]/48 FOB-LOC-6ft on front Left side SBD Rail> [email protected] Pointed at mid stacks. Lineage: .wav @24/48> WaveLab 7.2.1> UAD-2(mastering)> UVHR22> .wav @16/44.1> xAct> flac16/metatagging Recorded by: MULETAPER Mastered by Alex Ford 
  Archive
Source Information - Download Text | Download Zip
Phil Lesh Quintet- PLQ
12-13-2013 - Friday
25th Annual Xmas Jam
U.S. Cellular Center
(Asheville Civic Center)
Asheville, NC

Source: FOB-2x Beyerdynamic MC930's(Matched Stereo Pair)>Tascam [email protected]/48
FOB-LOC-6ft on front Left side SBD Rail> [email protected] Pointed at mid stacks.

Lineage: .wav @24/48> WaveLab 7.2.1> UAD-2(mastering)> UVHR22>
.wav @16/44.1> xAct> flac16/metatagging

Recorded by: MULETAPER

Mastered by Alex Ford


01. crowd/tuning
02. Jam >
03. Celebration
04. Playing In The Band >
05. China Cat Sunflower >
06. I Know You Rider
07. Night Of 1,000 Stars
08. Mountains Of The Moon >
09. St. Stephen >
10. The Other One*
11. Terrapin Station


Notes:

- * Somewhere Over The Rainbow (JH Instrumental)during the Other One

- All editing and mastering with UAD-2 in 24/48

~~~~~~~~~~~~~~~~~~~~~~~~~~~~~~~~~~~~~~~~~~~~~~~~

The "Q"

Phil Lesh
Warren Haynes
Jimmy Herring
Rob Barraco
John Molo


Shnlen:

    length     expanded size    cdr  WAVE problems  fmt   ratio  filename
     1:39.20       17510684 B   ---   --   -----    wav  1.0000  plq2013-12-13.muletaper-t01.wav
     7:34.12       80113868 B   ---   --   -----    wav  1.0000  plq2013-12-13.muletaper-t02.wav
     6:59.68       74071580 B   ---   --   -----    wav  1.0000  plq2013-12-13.muletaper-t03.wav
    13:23.34      141729212 B   ---   --   -----    wav  1.0000  plq2013-12-13.muletaper-t04.wav
     7:31.67       79714028 B   ---   --   -----    wav  1.0000  plq2013-12-13.muletaper-t05.wav
    10:56.51      115838396 B   ---   --   -----    wav  1.0000  plq2013-12-13.muletaper-t06.wav
     8:21.11       88402316 B   ---   --   -----    wav  1.0000  plq2013-12-13.muletaper-t07.wav
    19:35.62      207415868 B   ---   --   -----    wav  1.0000  plq2013-12-13.muletaper-t08.wav
    11:53.48      125886140 B   ---   --   -----    wav  1.0000  plq2013-12-13.muletaper-t09.wav
    21:05.27      223209548 B   ---   --   -----    wav  1.0000  plq2013-12-13.muletaper-t10.wav
    15:11.17      160740428 B   ---   --   -----    wav  1.0000  plq2013-12-13.muletaper-t11.wav
   124:12.42     1314632068 B                            1.0000  (11 files)

Show Checksums
flac-md5
466698db1952bcce4527fe2416f8db20 *plq2013-12-13.muletaper-t01.flac
b287f0ab73ee487b59a06c30578e8611 *plq2013-12-13.muletaper-t02.flac
5477c4dc91f7228455512a5c77728f7c *plq2013-12-13.muletaper-t03.flac
f0a7481410cb1357237f5a77ba7237f6 *plq2013-12-13.muletaper-t04.flac
6946c03e8fcb2c9ee1406ca954424fe0 *plq2013-12-13.muletaper-t05.flac
e210e2a4bd9cf5f407e689dd6c37bdba *plq2013-12-13.muletaper-t06.flac
707cbf01828659cab2171f931e6a04c2 *plq2013-12-13.muletaper-t07.flac
522817b5a6feb9fe377508954df10d03 *plq2013-12-13.muletaper-t08.flac
2a1243c7071243af1533cc6729908814 *plq2013-12-13.muletaper-t09.flac
70a711772fb0cac41789bd4c70258843 *plq2013-12-13.muletaper-t10.flac
3586bbc86d372e10cc906ccb198e9a8e *plq2013-12-13.muletaper-t11.flac
ffp
plq2013-12-13.muletaper-t01.flac:77ac4598e543f83028094e8f5a7627aa
plq2013-12-13.muletaper-t02.flac:976264b0d7c179fa41ab05793c9af33d
plq2013-12-13.muletaper-t03.flac:a2989d91913835b4a2b9ee9282498f04
plq2013-12-13.muletaper-t04.flac:e217b461a80e46645c913ed6ed56103b
plq2013-12-13.muletaper-t05.flac:cd429ce343ebcd1ee9a0314deb9d5151
plq2013-12-13.muletaper-t06.flac:9b918d2732bb5e1248905cffb56d21ce
plq2013-12-13.muletaper-t07.flac:ddbd5095ff56b0f3cbeee8c3033c50e0
plq2013-12-13.muletaper-t08.flac:d4f66820dc55ebad686191b59d537eb7
plq2013-12-13.muletaper-t09.flac:76c6f774e7c1750de43b61df69f0e880
plq2013-12-13.muletaper-t10.flac:6ae152860c290d1cbe67284f7f746f54
plq2013-12-13.muletaper-t11.flac:83a57ee9ad65797ebf7d80d461171d12

Comments
Add Comment
Other Sources (comments)
flac16; FOB-2x... (0) flac16; Neumann... (0) Neumann 140's > V-3 >... (0) Source: Schoeps... (0) Source:Schoeps mk4v... (0) Neumann ak40 > lc3 >... (0) Source: 4 channel mix:... (0) source: Peluso cemc6/ck4... (0) Source: Schoeps MK41V >... (0) Source: ADK A51TL... (0) source: Neumann ak40 > lc3... (0)
Date User Comment