Browse Collections Artists Sources   Search Dates

Add Show    List Management    Help


Grateful Dead 07/01/73
Universal Amphitheatre, Universal City, CA
Comments Add Comment    Source Collectors    Add to Collection    Add to Want List    History
Source # 127028 Other Sources
Entered by Matt Vernon
Checksums ffp , flac-md5
Disc Counts 0 / 0
Media Size Compressed: 938.95 MB (984557980 bytes)
Date Circulated
Date Added
02/11/2014
02/11/2014
Source Summary flac16; Recording Info: SBD -> Master Reel -> Sound Devices 744T (24bit/96k); Transfer Info: WAV (24bit/96k) -> Samplitude Professional v11.2.1 -> FLAC/16; All Transfers and Mastering By Charlie Miller 
  Archive
Source Information - Download Text | Download Zip
Grateful Dead - July 1, 1973
Universal Amphitheatre - Universal City, CA

Recording Info:
SBD -> Master Reel -> Sound Devices 744T (24bit/96k)

Transfer Info:
WAV (24bit/96k) -> Samplitude Professional v11.2.1 -> FLAC/16
(3 Discs Audio / 1 DVD FLAC)

All Transfers and Mastering By Charlie Miller
[email protected]
February 10, 2014

Patch Info:
(FOB) Sony ECM-22P -> Master Reel -> Reel -> Dat -> CD (shnid=178) supplies:
Playing In The Band (19:01 - 19:18)
The Other One (3:18 - 3:42)

Notes:
-- Set 2 is seamless

Set 1:
d1t01 - Tuning
d1t02 - Mississippi Half-Step Uptown Toodeloo
d1t03 - Me And My Uncle
d1t04 - Sugaree
d1t05 - The Race Is On
d1t06 - Brown Eyed Women
d1t07 - Looks Like Rain
d1t08 - Don't Ease Me In
d1t09 - Big River
d1t10 - China Cat Sunflower ->
d1t11 - I Know You Rider
d1t12 - Around And Around

Set 2:
d2t01 - Tuning
d2t02 - Playing In The Band
d2t03 - Row Jimmy
d2t04 - El Paso
d2t05 - Loose Lucy
d3t01 - Truckin' ->
d3t02 - Drums ->
d3t03 - The Other One ->
d3t04 - Wharf Rat ->
d3t05 - Me And Bobby McGee
d3t06 - Casey Jones


SHNTOOL OUTPUT:
    length     expanded size    cdr  WAVE problems  fmt   ratio  filename
     0:54.26        9586796 B   ---   --   ---xx   flac  0.3832  gd73-07-01d1t01.flac
     8:37.20       91245884 B   ---   --   ---xx   flac  0.5375  gd73-07-01d1t02.flac
     3:36.56       38234156 B   ---   --   ---xx   flac  0.5557  gd73-07-01d1t03.flac
     8:06.33       85808060 B   ---   --   ---xx   flac  0.5176  gd73-07-01d1t04.flac
     4:16.37       45245468 B   ---   --   ---xx   flac  0.5100  gd73-07-01d1t05.flac
     5:44.55       60811004 B   ---   --   ---xx   flac  0.5125  gd73-07-01d1t06.flac
     7:02.07       74457308 B   ---   --   ---xx   flac  0.5213  gd73-07-01d1t07.flac
     3:49.09       40416812 B   ---   --   ---xx   flac  0.5557  gd73-07-01d1t08.flac
     5:40.61       60119516 B   ---   --   ---xx   flac  0.5327  gd73-07-01d1t09.flac
     7:55.32       83865308 B   ---   --   ---xx   flac  0.5768  gd73-07-01d1t10.flac
     5:53.47       62379788 B   ---   --   ---xx   flac  0.5529  gd73-07-01d1t11.flac
     4:55.20       52085084 B   ---   --   ---xx   flac  0.5949  gd73-07-01d1t12.flac
     0:50.25        8878844 B   ---   --   ---xx   flac  0.3888  gd73-07-01d2t01.flac
    26:02.70      275701484 B   ---   --   ---xx   flac  0.5406  gd73-07-01d2t02.flac
     9:59.26      105724796 B   ---   --   ---xx   flac  0.5271  gd73-07-01d2t03.flac
     6:16.15       66361724 B   ---   --   ---xx   flac  0.5001  gd73-07-01d2t04.flac
     9:11.61       97339916 B   ---   --   ---xx   flac  0.5500  gd73-07-01d2t05.flac
     8:28.42       89710028 B   ---   --   ---xx   flac  0.5762  gd73-07-01d3t01.flac
     1:45.17       18562028 B   ---   --   ---xx   flac  0.5407  gd73-07-01d3t02.flac
    21:27.53      227151500 B   ---   --   ---xx   flac  0.5362  gd73-07-01d3t03.flac
     8:51.47       93778988 B   ---   --   ---xx   flac  0.5395  gd73-07-01d3t04.flac
     6:05.00       64386044 B   ---   --   ---xx   flac  0.5392  gd73-07-01d3t05.flac
     6:40.70       70724684 B   ---   --   ---xx   flac  0.5800  gd73-07-01d3t06.flac
   172:12.04     1822575220 B                            0.5402  (23 files)


Show Checksums
ffp
gd73-07-01d1t01.flac:7d5505d7821664783f6bf30d396a2b64
gd73-07-01d1t02.flac:f2adf33535d134918cb975f3d97ee624
gd73-07-01d1t03.flac:0b4b40a75e42ee87ac1ad824ecae498a
gd73-07-01d1t04.flac:ab4bd3f39997e50e1bf15072235896b4
gd73-07-01d1t05.flac:0fb726c48455e479d63709d22cc52b70
gd73-07-01d1t06.flac:2a90891f1fcecf5506590a5822365203
gd73-07-01d1t07.flac:b5997729e6f4f25db78cdadce436d369
gd73-07-01d1t08.flac:823bf3b8f53bc1643c294c742734e59a
gd73-07-01d1t09.flac:411f94f142f937322bbc7381d03834e8
gd73-07-01d1t10.flac:6298b55df9a03468bdc0c4c11a910d39
gd73-07-01d1t11.flac:3096dadf312e6a7d2901a2890a238671
gd73-07-01d1t12.flac:93da0243b55d1a62c840c3dcb0711919
gd73-07-01d2t01.flac:c81ca95761535776760083348e16a45f
gd73-07-01d2t02.flac:a4cae4b3bfb3b7f35b6537dd661feb5e
gd73-07-01d2t03.flac:5c74c2fbc73d28d446beb2c15d60fcee
gd73-07-01d2t04.flac:9f5713849f5ee639f20cfb68e2477c2e
gd73-07-01d2t05.flac:b5d9f19ae5d95507e16e26459b5d2a5e
gd73-07-01d3t01.flac:792f3818f2772e739a914081616434f2
gd73-07-01d3t02.flac:3a9ee5047dcf88342ddf1d764a0428fb
gd73-07-01d3t03.flac:7e549cb8054137f00a493172c22c7e64
gd73-07-01d3t04.flac:fb400d572dff2930965575e273371852
gd73-07-01d3t05.flac:ebe16705225099f53a3c2c4a519b1bad
gd73-07-01d3t06.flac:5f0f144db49f236b8009467871269359
flac-md5
93722cf562c9475dcc10394bb5bd6de1 *gd73-07-01d1t01.flac
159b0830bf2f5dc3f6b3239ffbf005a3 *gd73-07-01d1t02.flac
01c872de169d08b47baafc273ef1dfaf *gd73-07-01d1t03.flac
06eebe367524926e2373aa6c03ee16d0 *gd73-07-01d1t04.flac
1fdba90d694312dc14b54d32c29c82b2 *gd73-07-01d1t05.flac
fb92d26d2d22faf464cf0540a3e47ebe *gd73-07-01d1t06.flac
b04f8a21dd8ba73e6b64106d810ad33d *gd73-07-01d1t07.flac
a3905065097ee56dd92a5eafcbf943c1 *gd73-07-01d1t08.flac
f085213f646f4af0585523134c83e18f *gd73-07-01d1t09.flac
f3b83de1af8a85474db7bab123aafd58 *gd73-07-01d1t10.flac
2c582052b25aaadf7531152571f934fa *gd73-07-01d1t11.flac
8803b0b1e3de7ae2a320cd8f67eb528c *gd73-07-01d1t12.flac
926c64bf1ada91a36a161ff43f347604 *gd73-07-01d2t01.flac
97afe1b52d10ced0378f21c58b4c4c5c *gd73-07-01d2t02.flac
a393adead897fa287ed26309295d0b92 *gd73-07-01d2t03.flac
2f5fdd98e0e5e66149cbcd7aaaf7f987 *gd73-07-01d2t04.flac
f67166685fef55a63b9399f22efb6346 *gd73-07-01d2t05.flac
dc8f24b498cb40d89544bae4d66fd581 *gd73-07-01d3t01.flac
00ee36bd5efaa51de52491c37064c55c *gd73-07-01d3t02.flac
f9ff9ec87d7baa1bdf873c018c9f37ea *gd73-07-01d3t03.flac
e86f9d3bb41544edbf5b1b099b7bc7b7 *gd73-07-01d3t04.flac
1ff93e742d7f7590d13948c932d4ee2c *gd73-07-01d3t05.flac
69f1a07bf76f3bdbd00bea48737011bd *gd73-07-01d3t06.flac

Comments
Add Comment
Other Sources (comments)
daud> Sony ec M22P mics... (3) flac16 Source: SBD >... (0) flac16 MOTB Release:... (1) flac24 MOTB Release:... (0) flac16; Matrix 2... (0) DTS Audio 5.1; SBD... (0) flac16; Matrix by... (0)
Date User Comment