Browse Collections Artists Sources   Search Dates

Add Show    List Management    Help


Garcia 11/15/81
Performing Arts Center, Providence, RI
Comments Add Comment    Source Collectors    Add to Collection    Add to Want List    History
Source # 127050 Other Sources
Entered by Joe Jupille
Checksums 1981-11-15 Ocean State Theatre.md5.md5 , 1981-11-15 Ocean State Theatre.fpf.ffp , 1981-11-15 Ocean State Theatre.txt.txt
Disc Counts 0 / 0
Media Size Compressed: 2.86 MB (2998927 bytes)
Date Circulated
Date Added
02/08/2014
02/13/2014
Source Summary flac2496; Richie Stankiewicz taped and transferred; Recorded on Sony TCD-5M two Beyer M-88 1st Row Balcony; Transfer MAC > Sony TCKA-3es (parts 1st gen > Sony TCKA-3es). 
Source Information - Download Text | Download Zip
The Jerry Garcia Band
Ocean State Theater, Providence, R.I.

11-15-1981

24bit/96kHz file-set

s1t01 crowd*
s1t02 Sugaree*
s1t03 Catfish John*
s1t04 Second That Emotion*
s1t05 Valerie
s1t06 That's What Love Will Make You Do
s1t07 Tangled Up In Blue



s2t01 Mission in the Rain
s2t02 The Harder They Come/*
s2t03 Russion Lullabye
s2t04 The Night They Drove Old Dixie Down
s2t05 Dear Prudence
s2t06 Midnight Moonlight/



Recorded on Sony TCD-5M two Beyer M-88 1st Row Balcony
Transfer MAC>Sony TCKA-3es *1st gen>Sony TCKA-3es
Taped & transfer by Richie Stankiewicz.


Create checksum file log saved to file.
    length     expanded size    cdr  WAVE problems  fmt   ratio  filename
     0:31.837      18338054 B   cxx   --   ---xx   flac  0.5957  jgb1981-11-15s1t1.flac
    12:20.004     426242426 B   cxx   --   ---xx   flac  0.6283  jgb1981-11-15s1t2.flac
    11:39.775     403070450 B   cxx   --   ---xx   flac  0.6250  jgb1981-11-15s1t3.flac
    10:55.252     377425214 B   cxx   --   ---xx   flac  0.6445  jgb1981-11-15s1t4.flac
     8:09.659     282043688 B   cxx   --   ---xx   flac  0.6498  jgb1981-11-15s1t5.flac
    10:55.845     377767022 B   cxx   --   ---xx   flac  0.6624  jgb1981-11-15s1t6.flac
    12:43.764     439928036 B   cxx   --   ---xx   flac  0.6676  jgb1981-11-15s1t7.flac
    11:43.982     405493430 B   cxx   --   ---xx   flac  0.6485  jgb1981-11-15s2t1.flac
    12:10.834     420960698 B   cxx   --   ---xx   flac  0.6407  jgb1981-11-15s2t2.flac
    17:49.478     616019540 B   cxx   --   ---xx   flac  0.6375  jgb1981-11-15s2t3.flac
     8:30.082     293807480 B   cxx   --   ---xx   flac  0.6381  jgb1981-11-15s2t4.flac
    13:50.000     478080260 B   cxx   --   ---xx   flac  0.6422  jgb1981-11-15s2t5.flac
     6:35.192     227630864 B   cxx   --   ---xx   flac  0.6556  jgb1981-11-15s2t6.flac
   137:55.706    4766807162 B                            0.6441  (13 files)

No errors occured.

Audio file details log saved to file.


Show Checksums
1981-11-15 Ocean State Theatre.md5.md5
b9773b432bd294534d1107aa6bf0636f *jgb1981-11-15s1t1.flac
59a81405123f13860e4a9885a9b758e1 *jgb1981-11-15s1t2.flac
1cc1deb3a8fd706cf9e22a4dead8e6bd *jgb1981-11-15s1t3.flac
af600b4fdfab2efb011a920f515afed7 *jgb1981-11-15s1t4.flac
3cea2fd32d45fe124bb6e86d65aa41c5 *jgb1981-11-15s1t5.flac
790798ccb523d54110836959eacb6950 *jgb1981-11-15s1t6.flac
952d2a1e4a70c70de08a9b8f40b80ba7 *jgb1981-11-15s1t7.flac
8b111a44b7c823ac41fa438e3abc4390 *jgb1981-11-15s2t1.flac
7fbbba60ddd387db033e13cc1e958ff1 *jgb1981-11-15s2t2.flac
023c995d151343b7feb5258a5dcad7d7 *jgb1981-11-15s2t3.flac
68620917718d760c108eb8e6229d3fd5 *jgb1981-11-15s2t4.flac
b51a2ab3748087da1128cd2079c39eb8 *jgb1981-11-15s2t5.flac
c87bf65f4a5afdedc7f2d9dd457c1aa5 *jgb1981-11-15s2t6.flac
1981-11-15 Ocean State Theatre.fpf.ffp
jgb1981-11-15s1t1.flac:3e5679119d84669711d42a9c06e249e3
jgb1981-11-15s1t2.flac:6df11c572dda75271ddf1c249694dfa6
jgb1981-11-15s1t3.flac:99e4dd8c881477118313882dbee32b64
jgb1981-11-15s1t4.flac:95b19d48ad63d0f2f0d6058aeb05bd8b
jgb1981-11-15s1t5.flac:207ffb36db0df2b3c5da315f5700225f
jgb1981-11-15s1t6.flac:5e4bdcc82fc82819e4131646b52ab737
jgb1981-11-15s1t7.flac:475977286fd382c2e051aa481a6cba36
jgb1981-11-15s2t1.flac:1889d8087033017311ab03bc1da458f5
jgb1981-11-15s2t2.flac:73aaadfd06a7518e2956ca111fcbe21a
jgb1981-11-15s2t3.flac:26c40e374f53819b8c8ac36917f6047e
jgb1981-11-15s2t4.flac:5cd66c8e19615ec0d8e47c70e1099e63
jgb1981-11-15s2t5.flac:013e0bfc75c25ae9ee7b8d988d9c8c89
jgb1981-11-15s2t6.flac:f3a45ed6981a96d2475390637ef7910e
1981-11-15 Ocean State Theatre.txt.txt
length expanded size cdr WAVE problems fmt ratio filename
0:31.837 18338054 B cxx -- ---xx flac 0.5957 jgb1981-11-15s1t1.flac
12:20.004 426242426 B cxx -- ---xx flac 0.6283 jgb1981-11-15s1t2.flac
11:39.775 403070450 B cxx -- ---xx flac 0.6250 jgb1981-11-15s1t3.flac
10:55.252 377425214 B cxx -- ---xx flac 0.6445 jgb1981-11-15s1t4.flac
8:09.659 282043688 B cxx -- ---xx flac 0.6498 jgb1981-11-15s1t5.flac
10:55.845 377767022 B cxx -- ---xx flac 0.6624 jgb1981-11-15s1t6.flac
12:43.764 439928036 B cxx -- ---xx flac 0.6676 jgb1981-11-15s1t7.flac
11:43.982 405493430 B cxx -- ---xx flac 0.6485 jgb1981-11-15s2t1.flac
12:10.834 420960698 B cxx -- ---xx flac 0.6407 jgb1981-11-15s2t2.flac
17:49.478 616019540 B cxx -- ---xx flac 0.6375 jgb1981-11-15s2t3.flac
8:30.082 293807480 B cxx -- ---xx flac 0.6381 jgb1981-11-15s2t4.flac
13:50.000 478080260 B cxx -- ---xx flac 0.6422 jgb1981-11-15s2t5.flac
6:35.192 227630864 B cxx -- ---xx flac 0.6556 jgb1981-11-15s2t6.flac
137:55.706 4766807162 B 0.6441 (13 files)

Comments
Add Comment
Other Sources (comments)
Jerry Garcia Band: MAC... (2) JGB, flac24: Tim... (0) JGB, flac16: Tim... (0) flac1644; Richie... (0)
Date User Comment