Browse Collections Artists Sources   Search Dates

Add Show    List Management    Help


Garcia 11/15/81
Performing Arts Center, Providence, RI
Comments Add Comment    Source Collectors    Add to Collection    Add to Want List    History
Source # 127062 Other Sources
Entered by
Checksums 1981-11-15 Ocean State Theatre.1644.flac.md5 , 1981-11-15 Ocean State Theatre.1644.flac.ffp
Disc Counts 0 / 0
Media Size Compressed: 767.89 MB (805191024 bytes)
Uncompressed: 1.36 GB (1459835228 bytes)
Date Circulated
Date Added
02/13/2014
02/14/2014
Source Summary flac1644; Richie Stankiewicz taped and transferred; Recorded on Sony TCD-5M two Beyer M-88 1st Row Balcony; Transfer MAC > Sony TCKA-3es (some songs 1st gen > Sony TCKA-3es) > 24/96 > r8brain (16/44). 
Source Information - Download Text | Download Zip
The Jerry Garcia Band
Ocean State Theater, Providence, R.I.

11-15-1981

16bit/44.1kHz file-set

s1t01 crowd*
s1t02 Sugaree*
s1t03 Catfish John*
s1t04 Second That Emotion*
s1t05 Valerie
s1t06 That's What Love Will Make You Do
s1t07 Tangled Up In Blue

s2t01 Mission in the Rain
s2t02 The Harder They Come/*
s2t03 Russion Lullabye
s2t04 The Night They Drove Old Dixie Down
s2t05 Dear Prudence
s2t06 Midnight Moonlight/

Recorded on Sony TCD-5M two Beyer M-88 1st Row Balcony
Transfer MAC>Sony TCKA-3es *1st gen>Sony TCKA-3es
24/96>r8brain>16/44.1
Taped & transfer by Richie Stankiewicz.


    length     expanded size    cdr  WAVE problems  fmt   ratio  filename
     0:31.62        5614268 B   ---   --   ---xx   flac  0.4479  jgb1981-11-15s1t01.flac
    12:20.01      130538396 B   ---   --   ---xx   flac  0.5244  jgb1981-11-15s1t02.flac
    11:39.58      123440060 B   ---   --   ---xx   flac  0.5120  jgb1981-11-15s1t03.flac
    10:55.19      115586732 B   ---   --   ---xx   flac  0.5598  jgb1981-11-15s1t04.flac
     8:09.49       86374892 B   ---   --   ---xx   flac  0.5388  jgb1981-11-15s1t05.flac
    10:55.63      115690220 B   ---   --   ---xx   flac  0.5781  jgb1981-11-15s1t06.flac
    12:43.58      134729660 B   ---   --   ---xx   flac  0.6010  jgb1981-11-15s1t07.flac
    11:43.73      124180940 B   ---   --   ---xx   flac  0.5608  jgb1981-11-15s2t01.flac
    12:10.63      128920220 B   ---   --   ---xx   flac  0.5464  jgb1981-11-15s2t02.flac
    17:49.36      188656316 B   ---   --   ---xx   flac  0.5307  jgb1981-11-15s2t03.flac
     8:30.06       89978156 B   ---   --   ---xx   flac  0.5451  jgb1981-11-15s2t04.flac
    13:50.00      146412044 B   ---   --   ---xx   flac  0.5561  jgb1981-11-15s2t05.flac
     6:35.15       69713324 B   ---   --   ---xx   flac  0.5917  jgb1981-11-15s2t06.flac
   137:55.53     1459835228 B                            0.5516  (13 files)

Show Checksums
1981-11-15 Ocean State Theatre.1644.flac.md5
000aa04853b97caf9a64c7a687e63231 *jgb1981-11-15s1t01.flac
ba7fb13efc6a86d762365682e99df084 *jgb1981-11-15s1t02.flac
a3f8d9b3b4b279469dcee00956881752 *jgb1981-11-15s1t03.flac
dc4e97c9d567852c859a13830cace06e *jgb1981-11-15s1t04.flac
a8c579de3754fd48fd39bee38c1e40de *jgb1981-11-15s1t05.flac
5af088250132979c241b759f520922bc *jgb1981-11-15s1t06.flac
c6b18625fb774b82feeae11781b3793e *jgb1981-11-15s1t07.flac
6c93fd7d0647c3c3cd4122ea50fc7016 *jgb1981-11-15s2t01.flac
b8216f99b66ed20c96372de8e1cf1296 *jgb1981-11-15s2t02.flac
9bc0e9d6746847dc2a91d701836776aa *jgb1981-11-15s2t03.flac
f819c6b5579ceb6ec6e8f5b4c77c52cb *jgb1981-11-15s2t04.flac
740d16c93c055828d03877788e2c4aee *jgb1981-11-15s2t05.flac
708d7a7496835397c4b74343c99e3216 *jgb1981-11-15s2t06.flac
1981-11-15 Ocean State Theatre.1644.flac.ffp
jgb1981-11-15s1t01.flac:885dd5dd8ae60c0a8e1c7e70b180ff2f
jgb1981-11-15s1t02.flac:c23815d18000799a5b9f0fa973ce2757
jgb1981-11-15s1t03.flac:bb69e525149ba722761b31b0e697ae15
jgb1981-11-15s1t04.flac:58c127a1b06a2eed45c26286f73800bc
jgb1981-11-15s1t05.flac:46b953a9029f33582a7455837efec5b2
jgb1981-11-15s1t06.flac:9ed42fdbfb397c1785a471c777f2c6e0
jgb1981-11-15s1t07.flac:532dfa464ec533b72d326059d699dd43
jgb1981-11-15s2t01.flac:4e4700975faf02c2a1ce2a55aa1f9016
jgb1981-11-15s2t02.flac:45f7f0216aca79796035dee8a390fb1e
jgb1981-11-15s2t03.flac:d1b5fa7b5c4e3743d6cd29e54dd36473
jgb1981-11-15s2t04.flac:c18cdee65953d06402b8f7636f08c2ad
jgb1981-11-15s2t05.flac:ee4b51cbfd9f35c2dc62ffaf12e7bb3d
jgb1981-11-15s2t06.flac:eb8f182e43416a8657a6f3d7af2dd393

Comments
Add Comment
Other Sources (comments)
Jerry Garcia Band: MAC... (2) JGB, flac24: Tim... (0) JGB, flac16: Tim... (0) flac2496; Richie... (0)
Date User Comment