Browse Collections Artists Sources   Search Dates

Add Show    List Management    Help


Grateful Dead 03/25/90
Knickerbocker Arena, Albany, NY
Comments Add Comment    Source Collectors    Add to Collection    Add to Want List    History
Source # 127157 Other Sources
Entered by Matt Vernon
Checksums flac-md5 , ffp
Disc Counts 0 / 0
Media Size Compressed: 0.99 GB (1065686901 bytes)
Uncompressed: 1.55 GB (1660983324 bytes)
Date Circulated
Date Added
02/23/2014
02/23/2014
Source Summary flac16; 2 Source Matrix by dusborne; Soundboard (shnid:87347) Transfer Info: Cassette Master (Nakamichi DR-1) -> Apogee MiniMe (24bit/48k) -> Samplitude Professional v9.11 -> FLAC/16; All Transfers And Mastering By Charlie Miller and Audience (shnid:114260) Recorded By Floater,Transfer By Keo; Master Audience Nakamichi CM300/CP4 Shotguns>Sony D5 Tapes Maxell XLII-90,100; Transfer With Nakamichi MR-1>Korg MR-1000 @ 1 Bit/5.6 MHz 
  Archive
Source Information - Download Text | Download Zip
Grateful Dead
March 25, 1990
Knickerbocker Arena
Albany, NY

2 Source Matrix

Soundboard (shnid:87347)
--------------------------------------------------------------------------------
gd90-03-25.87347.sbd.miller.sbeok.flac16

Recording Info:
SBD -> Dat -> Cassette Master (TDK MA-R90)

Transfer Info:
Cassette Master (Nakamichi DR-1) -> Apogee MiniMe (24bit/48k) ->
Samplitude Professional v9.11 -> FLAC/16
(3 Discs Audio / 2 Discs FLAC)

All Transfers And Mastering By Charlie Miller
[email protected]
September 21, 2007

Patch Info:
(FOB) Schoeps CMC4/MK21 -> Oade Cap Coupled Supply -> Dat supplies:
Drums (5:14 - 5:31)

Notes:
-- Set 2 is seamless
-- This is from a custom live recording mix by John Cutler
-- Thanks to Steve Marcus for the tapes
-- Mind Left Body tease after Spoonful


Audience (shnid:114260)
-------------------------------------------------------------------------------
gd90-03-25.114260.nak300CP4.floater.keo.t-flac16

Recorded By Floater,Transfer By Keo
Master Audience Nakamichi CM300/CP4 Shotguns>Sony D5
Tapes Maxell XLII-90,100

Transfer With Nakamichi MR-1>Korg MR-1000 @ 1 Bit/5.6 MHz

Tracking/Sample Rate Conversion/Metadata Tagging
With AudioGate Software To 32 Bit Float/96 kHz
Dithered/Flacked With Korg Aqua To 16/44
SBE's Checked/Fixed With Trader's Little Helper

Comments:
Another HUGE Thanks to Floater for the source tapes
and excellent recording! What a beautiful "Bird Song" and "Eyes
Of The World" both brought tears to my eyes!As always
ENJOY!

Re-tagging notes:
The metadata of original version did not include track numbers and
the information in other fields did not match the field names.
B. Proctor 2/10/2014

--------------------------------------------------------------------------------

---Thank you Charlie Miller for your work on the SBD.
---Thank you Steve Marcus for providing the SBD tapes.
---Thank you Floater for recording the show.
---Thank you Keo for the AUD transfer.
---Thank you XJ32 for the art work.
---Thank you Germain for your advice, encouragement, guidance and seeding.

Matrix by dusborne

02-21-2014
-------------------------------------------------------------------------------

Set 1
101 - gd90-03-25s1t01 - Tuning
102 - gd90-03-25s1t02 - Greatest Story Ever Told ->
103 - gd90-03-25s1t03 - Touch Of Grey
104 - gd90-03-25s1t04 - Wang Dang Doodle
105 - gd90-03-25s1t05 - Never Trust A Woman
106 - gd90-03-25s1t06 - Jack-A-Roe
107 - gd90-03-25s1t07 - When I Paint My Masterpiece
108 - gd90-03-25s1t08 - Bird Song
109 - gd90-03-25s1t09 - Let It Grow

Set 2

201 - gd90-03-25s2t01 - Eyes Of The World ->
202 - gd90-03-25s2t02 - Samson And Delilah
203 - gd90-03-25s2t03 - Crazy Fingers ->
204 - gd90-03-25s2t04 - Truckin' ->
205 - gd90-03-25s2t05 - Spoonful ->
206 - gd90-03-25s2t06 - Drums ->
207 - gd90-03-25s2t07 - Space ->
208 - gd90-03-25s2t08 - I Will Take You Home ->
209 - gd90-03-25s2t09 - Goin' Down The Road Feeling Bad ->
210 - gd90-03-25s2t10 - Black Peter ->
211 - gd90-03-25s2t11 - Around And Around

Encore:
212 - gd90-03-25s2t12 - The Mighty Quinn (Quinn The Eskimo)

--------------------------------------------------------------------------------

Tagging notes:
Show information is embedded within the header
of each flac file. It will display on any player
capable of directly playing flac files.
If converted to wav during processing, all tags
will be stripped, however audio data will remain
unaffected. If you must transcode to a lossy format,
do so directly Flac > Lossy.
Use st5 to validate audio integrity.
Md5 values will change if tagging is altered.

Dave Usborne 02-21-2014
--------------------------------------------------------------------------------

length     expanded size    cdr  WAVE problems  fmt   ratio  filename
     0:28.21        4988636 B   ---   --   ---xx   flac  0.6067  gd90-03-25s1t01.flac
     3:57.22       41858588 B   ---   --   ---xx   flac  0.6553  gd90-03-25s1t02.flac
     7:06.34       75226412 B   ---   --   ---xx   flac  0.6626  gd90-03-25s1t03.flac
     7:29.70       79368284 B   ---   --   ---xx   flac  0.6439  gd90-03-25s1t04.flac
     8:20.66       88355276 B   ---   --   ---xx   flac  0.6424  gd90-03-25s1t05.flac
     4:39.50       49333244 B   ---   --   ---xx   flac  0.6558  gd90-03-25s1t06.flac
     6:03.52       64155548 B   ---   --   ---xx   flac  0.6477  gd90-03-25s1t07.flac
    13:14.32      140136908 B   ---   --   ---xx   flac  0.6580  gd90-03-25s1t08.flac
    11:56.43      126403580 B   ---   --   ---xx   flac  0.6577  gd90-03-25s1t09.flac
    13:23.55      141778604 B   ---   --   ---xx   flac  0.6491  gd90-03-25s2t01.flac
     7:51.39       83176172 B   ---   --   ---xx   flac  0.6621  gd90-03-25s2t02.flac
     7:24.55       78451004 B   ---   --   ---xx   flac  0.6326  gd90-03-25s2t03.flac
     7:45.31       82098956 B   ---   --   ---xx   flac  0.6751  gd90-03-25s2t04.flac
     5:38.69       59785532 B   ---   --   ---xx   flac  0.6377  gd90-03-25s2t05.flac
    10:21.37      109631468 B   ---   --   ---xx   flac  0.5840  gd90-03-25s2t06.flac
     8:30.46       90072236 B   ---   --   ---xx   flac  0.5788  gd90-03-25s2t07.flac
     4:20.73       46035740 B   ---   --   ---xx   flac  0.5980  gd90-03-25s2t08.flac
     6:58.74       73909292 B   ---   --   ---xx   flac  0.6688  gd90-03-25s2t09.flac
     9:20.16       98821676 B   ---   --   ---xx   flac  0.6268  gd90-03-25s2t10.flac
     6:55.13       73236620 B   ---   --   ---xx   flac  0.6557  gd90-03-25s2t11.flac
     5:07.02       54159548 B   ---   --   ---xx   flac  0.6456  gd90-03-25s2t12.flac
   156:56.00     1660983324 B                            0.6416  (21 files)


Show Checksums
flac-md5
67f343f3e425760b02c0e97834969c54 *gd90-03-25s1t01.flac
7f220853281609457cba6ea75c539a9c *gd90-03-25s1t02.flac
b0ac2e381122f497dba08b78e61e3df7 *gd90-03-25s1t03.flac
8770b609014272c62520adf87e9c8189 *gd90-03-25s1t04.flac
be962179dc7c5226a2b792c3c973b19a *gd90-03-25s1t05.flac
439b5d3a6996aa99ab9100f84853ac14 *gd90-03-25s1t06.flac
4d54f8da197df7ff08d86a0b1df90ac5 *gd90-03-25s1t07.flac
46142e13519c40b0cf1025a1da37bbaf *gd90-03-25s1t08.flac
e3317a170cfa72dba590320afd134342 *gd90-03-25s1t09.flac
9007fec20a241360271108ea2b592432 *gd90-03-25s2t01.flac
33b317829f55a83d8b8c84ba1f39a23f *gd90-03-25s2t02.flac
ba0daa8e8f318d267ed9cc2d30cd06c5 *gd90-03-25s2t03.flac
a32fba01ea16add6a7b676a0efb33437 *gd90-03-25s2t04.flac
886b3c9e9a813efa3c2907d2aa523c93 *gd90-03-25s2t05.flac
bffb60fc35cb6234aa85ea77f565ca65 *gd90-03-25s2t06.flac
684381b12ad32bb5132efbebdd5faeb7 *gd90-03-25s2t07.flac
09fe32f64835791394a2f745cb483b43 *gd90-03-25s2t08.flac
2f96e3be6560cd2f178599cda7422ef8 *gd90-03-25s2t09.flac
b90dee82ee078a671b724dff3cd64cea *gd90-03-25s2t10.flac
82c36c6ac198120df7588b81768c1fdf *gd90-03-25s2t11.flac
691b2c4388d1c9bcd1d42230e2823274 *gd90-03-25s2t12.flac
ffp
gd90-03-25s1t01.flac:a7c35b9e466706bfcab3b2633c385a3f
gd90-03-25s1t02.flac:c781ac7ad058ceb94d77dd49a0c12e87
gd90-03-25s1t03.flac:9a3e05debf32a00b9a1338372eb27358
gd90-03-25s1t04.flac:376b11a1f6cdc5bdcc5d68b9d7486562
gd90-03-25s1t05.flac:6e00510cff0a6afeb91f44182dc08cfe
gd90-03-25s1t06.flac:ad0ff394cf17fc3858893ac0bc76e3f6
gd90-03-25s1t07.flac:c15f8c5378cc75734fb2003cef90fadd
gd90-03-25s1t08.flac:8a3b8bd3d6d5639c19173bd88bcddafa
gd90-03-25s1t09.flac:11156837605cb7b2de2bf6c703370212
gd90-03-25s2t01.flac:518549dc7e24f34dbef2747b04351026
gd90-03-25s2t02.flac:2ebc948d817317f29dd84d6927684430
gd90-03-25s2t03.flac:89a4b4035043e49ad2ebd39ade08c7b0
gd90-03-25s2t04.flac:9dd2367ee6eee21e2f90f110f81eea2f
gd90-03-25s2t05.flac:287bf3d290e66605ad2ec474d2c541d6
gd90-03-25s2t06.flac:b084811be50b4209b73372104e118602
gd90-03-25s2t07.flac:a44793281123906ea366f6f1e3cfc7a1
gd90-03-25s2t08.flac:fa313a97fa647d02f3ad6f474da16c41
gd90-03-25s2t09.flac:f3662e1a67524a2c59414f6fd6c0c339
gd90-03-25s2t10.flac:188fe9b286c2d627b61107013e77ea96
gd90-03-25s2t11.flac:bf415c0b2f36afd623226caf47298d6c
gd90-03-25s2t12.flac:b7a63e2cc112b38013fb3944cefd1231

Comments
Add Comment
Other Sources (comments)
SBD cass master > DAT > SHN... (0) SBD>24 Track... (1) 24 track SBD MR> Healy 2... (3) FOB Schoeps CMC4/MK21> Oade... (0) flac16; SBD -> Dat... (0) flac16; Sennheiser... (0) flac16; AUD:... (0) flac24; Recorded By... (0) flac16; Recorded By... (0) flac16; Recorded By... (0) flac24; Recorded By... (0) flac16/48kHz;... (0) flac16; Source: AKG... (0) flac16; Recording... (0) flac16; Recording... (0) flac16/48kHz; Master... (0) flac16/48kHz; Ted... (0)
Date User Comment