Browse Collections Artists Sources   Search Dates

Add Show    List Management    Help


North Mississippi Allstars 10/30/03
Otto's, Dekalb, IL
Comments Add Comment    Source Collectors    Add to Collection    Add to Want List    History
Source # 127203 Other Sources
Entered by vanark
Checksums nma2003-10-30.picklemic.ffp
Disc Counts 0 / 0
Media Size
Date Circulated
Date Added

02/25/2014
Source Summary flac16: AKG 522>V3>DAT 1648 MS 
  Archive
Source Information - Download Text | Download Zip
North Mississippi Allstars
2003-10-30
Otto's
DeKalb, IL

Source: AKG 522>V3>DAT 1648 MS
Location: FOB DFC by pillar
Recorded: Picklemic
Transfer: DAT>R44> Audacity 2.0.1> Xact 2.25 > FLAC
Transferred: Jason Picklemic Loomis  picklemic2 @gmail


01. intro
02. Eyes
03. Never in All My Days
04. Downfall of Me>
05. Be So Glad>
06. Goin' Home >
07. All Along
08. I Got the Blues>
09. Hey Baby
10. Leaving'>
11. Shake 'Em on Down
12. Deep Blue Sea
13. Long Haired Doney
14. I Wonder Why
15. Feelin' Good
16. 51 Phantom
17. Whiskey Rock-A-Roller*
18. Mud*
19. Psychedelic Sex Machine*
E)
20. Sittin' On Top Of The World
21. Po' Black Maddie>
22. Skinny Woman>
23. Po' Black Maddie

Luther Dickinson: guitar, vocals
Cody Dickinson: drums, *electric washboard
Chris Chew: bass, vocals
Duwayne Burnside: guitar, vocals, *drums

    length     expanded size    cdr  WAVE problems  fmt   ratio  filename
     0:33.938       6516176 B   cxx   --   ---xx   flac  0.5226  NMA2003-10-30t01.flac
     4:19.502      49824472 B   cxx   --   ---xx   flac  0.6421  NMA2003-10-30t02.flac
     4:17.857      49508608 B   cxx   --   ---xx   flac  0.5583  NMA2003-10-30t03.flac
     5:05.616      58678276 B   cxx   --   ---xx   flac  0.5907  NMA2003-10-30t04.flac
     7:31.076      86606560 B   cxx   --   ---xx   flac  0.6094  NMA2003-10-30t05.flac
     7:31.000      86592012 B   cxx   --   ---xx   flac  0.6116  NMA2003-10-30t06.flac
     4:06.839      47393068 B   cxx   --   ---xx   flac  0.6245  NMA2003-10-30t07.flac
     3:41.947      42613916 B   cxx   --   ---xx   flac  0.6258  NMA2003-10-30t08.flac
     3:58.400      45772868 B   cxx   --   ---xx   flac  0.5935  NMA2003-10-30t09.flac
     2:59.436      34451832 B   cxx   --   ---xx   flac  0.6062  NMA2003-10-30t10.flac
     5:13.968      60281944 B   cxx   --   ---xx   flac  0.6437  NMA2003-10-30t11.flac
     5:46.510      66530044 B   cxx   --   ---xx   flac  0.5582  NMA2003-10-30t12.flac
     5:29.058      63179108 B   cxx   --   ---xx   flac  0.6236  NMA2003-10-30t13.flac
     3:51.340      44417368 B   cxx   --   ---xx   flac  0.6114  NMA2003-10-30t14.flac
     3:49.340      44033408 B   cxx   --   ---xx   flac  0.6132  NMA2003-10-30t15.flac
     4:30.154      51869708 B   cxx   --   ---xx   flac  0.5902  NMA2003-10-30t16.flac
     7:49.649      90172740 B   cxx   --   ---xx   flac  0.6413  NMA2003-10-30t17.flac
     4:08.339      47681040 B   cxx   --   ---xx   flac  0.6098  NMA2003-10-30t18.flac
     5:29.542      63272188 B   cxx   --   ---xx   flac  0.5941  NMA2003-10-30t19.flac
     6:05.880      70248936 B   cxx   --   ---xx   flac  0.6260  NMA2003-10-30t20.flac
     5:34.087      64144832 B   cxx   --   ---xx   flac  0.6124  NMA2003-10-30t21.flac
     7:10.184      82595324 B   cxx   --   ---xx   flac  0.6135  NMA2003-10-30t22.flac
     3:11.776      36821048 B   cxx   --   ---xx   flac  0.5644  NMA2003-10-30t23.flac
   112:15.440    1293205476 B                            0.6086  (23 files)


Show Checksums
nma2003-10-30.picklemic.ffp
NMA2003-10-30t01.flac:e438f234484a7a5ffe06f5109f4d4acd
NMA2003-10-30t02.flac:f8cb5e692b1d85e3856de9d2800b29e5
NMA2003-10-30t03.flac:7012b1483dc276cf16febbf499c4cb0e
NMA2003-10-30t04.flac:ba8f70508bfcca555bb952e091e7673e
NMA2003-10-30t05.flac:b0c88975bc2fa5f3423f3699a166e2aa
NMA2003-10-30t06.flac:c11255bb2de157244c0c47d46342e36e
NMA2003-10-30t07.flac:23aea61e081644b5d0b620d7030acc38
NMA2003-10-30t08.flac:9c3f2d4f898b088be241cd686c13d072
NMA2003-10-30t09.flac:9fe6774e7793ee3efb02b0beec1b8a93
NMA2003-10-30t10.flac:4e9df41143927dec17c304e901162613
NMA2003-10-30t11.flac:343b725203643250ceefc76230c981ec
NMA2003-10-30t12.flac:8f20c402b62d2115f56b5482c5593479
NMA2003-10-30t13.flac:15ccab2ce6844137b3fbbf188aac4289
NMA2003-10-30t14.flac:5f7862f3c6807227274989ce8e20e811
NMA2003-10-30t15.flac:3618ac143fc7347d03f0b1975086fe8c
NMA2003-10-30t16.flac:0d4074f15cfd494d5e86187f7f04b198
NMA2003-10-30t17.flac:1ce0e98983504cbf9b7fe35f501476bd
NMA2003-10-30t18.flac:492978e57342b47ab88d190c7aedecf5
NMA2003-10-30t19.flac:4152a5836acae84a68792f887b165a5d
NMA2003-10-30t20.flac:ffb63bc2b58c8484e3910d7ccc4bfdbc
NMA2003-10-30t21.flac:0c32ac3a4e8237acb57aae18d4c1c0e7
NMA2003-10-30t22.flac:8496832640dd7bb028dadafb48214515
NMA2003-10-30t23.flac:298e4e7f85dc8bd58c1769db53e4fac4

Comments
Add Comment
Other Sources (comments)
Earthworks sr77's > Lunatec... (0)
Date User Comment