Browse Collections Artists Sources   Search Dates

Add Show    List Management    Help


Grateful Dead 11/29/80
Alligator Alley Gymnasium, U of Florida, Gainesville, FL
Comments Add Comment    Source Collectors    Add to Collection    Add to Want List    History
Source # 127229 Other Sources
Entered by Matt Vernon
Checksums ffp , flac-md5
Disc Counts 0 / 0
Media Size Compressed: 3.77 GB (4052736572 bytes)
Date Circulated
Date Added
02/28/2014
03/01/2014
Source Summary flac24; Recorded Sony TCD-5m>Beyer M-88 in the "sweet spot"; Transfer MAC>Nakamichi 1000II>USBPre 2; Recorded and transfered by Richie Stankiewicz 
  Archive
Source Information - Download Text | Download Zip
The Grateful Dead
Alligator Alley Gymnasium
University of Florida
Gainsville, Florida

24bit/96kHz file-set


s1t01 crowd
s1t02 Alabama Getaway
s1t03 Promised land
s1t04 Candyman
s1t05 Minglewood Blues
s1t06 Row Jimmy
s1t07 Mama Tried
s1t08 Mexicali Blues
s1t09 Althea
s1t10 Lost Sailor
s1t11 St. of Circumstance
s1t12 Don't Ease Me In




s2t01 Shakedown Street
s2t02 Franklin's Tower
s2t03 Estimated Prophet
s2t04 He's Gone
s2t05 Truckin'
s2t06 Drums
s2t07 Space
s2t08 The Other One
s2t09 Stella Blue
s2t10 Good Lovin'
s2t11 Casey Jones




Recorded Sony TCD-5m>Beyer M-88 in the "sweet spot"
Transfer MAC>Nakamichi 1000II>USBPre 2
Recorded and transfered by Richie Stankiewicz

No errors occured.
    length     expanded size    cdr  WAVE problems  fmt   ratio  filename
     0:21.511      12390368 B   cxx   --   ---xx   flac  0.6531  gd1980-11-29s1t01.flac
     4:27.273     153949340 B   cxx   --   ---xx   flac  0.7037  gd1980-11-29s1t02.flac
     4:57.432     171321008 B   cxx   --   ---xx   flac  0.7026  gd1980-11-29s1t03.flac
     8:19.503     287713862 B   cxx   --   ---xx   flac  0.6920  gd1980-11-29s1t04.flac
     9:58.764     344888306 B   cxx   --   ---xx   flac  0.6981  gd1980-11-29s1t05.flac
    11:18.769     390970826 B   cxx   --   ---xx   flac  0.6941  gd1980-11-29s1t06.flac
     2:31.414      87214622 B   cxx   --   ---xx   flac  0.7061  gd1980-11-29s1t07.flac
     6:38.157     229338434 B   cxx   --   ---xx   flac  0.6996  gd1980-11-29s1t08.flac
     8:29.983     293750294 B   cxx   --   ---xx   flac  0.6987  gd1980-11-29s1t09.flac
     6:39.128     229898036 B   cxx   --   ---xx   flac  0.6901  gd1980-11-29s1t10.flac
     6:26.683     222729242 B   cxx   --   ---xx   flac  0.7054  gd1980-11-29s1t11.flac
     3:59.349     137865092 B   cxx   --   ---xx   flac  0.7077  gd1980-11-29s1t12.flac
    10:50.851     374890298 B   cxx   --   ---xx   flac  0.6840  gd1980-11-29s2t01.flac
     7:57.599     275097332 B   cxx   --   ---xx   flac  0.6903  gd1980-11-29s2t02.flac
    10:28.439     361980938 B   cxx   --   ---xx   flac  0.6777  gd1980-11-29s2t03.flac
    12:36.557     435776924 B   cxx   --   ---xx   flac  0.6750  gd1980-11-29s2t04.flac
     8:43.321     301432916 B   cxx   --   ---xx   flac  0.6952  gd1980-11-29s2t05.flac
     8:04.958     279336002 B   cxx   --   ---xx   flac  0.6833  gd1980-11-29s2t06.flac
     5:18.707     183574988 B   cxx   --   ---xx   flac  0.6676  gd1980-11-29s2t07.flac
     7:24.120     255813338 B   cxx   --   ---xx   flac  0.6843  gd1980-11-29s2t08.flac
    10:13.526     353390834 B   cxx   --   ---xx   flac  0.6692  gd1980-11-29s2t09.flac
     8:09.047     281691386 B   cxx   --   ---xx   flac  0.6961  gd1980-11-29s2t10.flac
     6:07.170     211490114 B   cxx   --   ---xx   flac  0.6979  gd1980-11-29s2t11.flac
   170:02.263    5876504500 B                            0.6897  (23 files)

No errors occured.


Show Checksums
ffp
gd1980-11-29s1t01.flac:a0b13ed249bf4001b7b3b81bd2eb9941
gd1980-11-29s1t02.flac:9a97d6cbf413f5cfa69a5eed3329b1d6
gd1980-11-29s1t03.flac:97719258c3497632ea32860ae8f42bd4
gd1980-11-29s1t04.flac:17ecea90887b272eefffc7f173051c23
gd1980-11-29s1t05.flac:a3716bf0a59bd019e31b794d76bd895d
gd1980-11-29s1t06.flac:e919696eceafb0bcc37de975b3df0cd9
gd1980-11-29s1t07.flac:a9ccb38bc43f89c80a64328277a3154d
gd1980-11-29s1t08.flac:d2b35db62133b729e4a2b3a802370a0d
gd1980-11-29s1t09.flac:99bf5e4aa051b005097d83b25b1eace1
gd1980-11-29s1t10.flac:6885f01ba87eb6dbdc291050570abc61
gd1980-11-29s1t11.flac:d83f4965ed2a14f66a2e4bca8cc66acd
gd1980-11-29s1t12.flac:300ae62f8f1ad571f75398e994afbe4f
gd1980-11-29s2t01.flac:6c17602eb1744bfe8921e8da0565b96b
gd1980-11-29s2t02.flac:0d48dded5f68b3fabdafd9862d95c113
gd1980-11-29s2t03.flac:4dbb19176b3882dd74583e96ae0aed27
gd1980-11-29s2t04.flac:08fa553c48f394004630453a120d4965
gd1980-11-29s2t05.flac:ff9fd311f8c5717f7991a9703c0ef9c3
gd1980-11-29s2t06.flac:4cadcb7893c3f55b853013a164394b31
gd1980-11-29s2t07.flac:a98d845fedbce02c2b0911ce9f32e1da
gd1980-11-29s2t08.flac:9275d9b848569d8b30b9610dd2614d5f
gd1980-11-29s2t09.flac:e8c1f9661cc54ac1be423e435e63c979
gd1980-11-29s2t10.flac:62df715d2bb753a665d81018820c524d
gd1980-11-29s2t11.flac:07405b2bcfa69f668229657faba10555
flac-md5
c7db933f3b8c9ffe30ed8206236bffea *gd1980-11-29s1t01.flac
bdd9f6415fe6c9329d77d9ad8ea2baa6 *gd1980-11-29s1t02.flac
545dca5e14250600be0e24004e52a97a *gd1980-11-29s1t03.flac
75f1d17b27633b360f5c005bf71d0a6c *gd1980-11-29s1t04.flac
fbfec2089a1fff56bc4a0b370f19817c *gd1980-11-29s1t05.flac
dd9a250ab71b4e1b52cd2bfb6700ce3a *gd1980-11-29s1t06.flac
0d9e5b14a83e443919d4bcce8f87dfb5 *gd1980-11-29s1t07.flac
87ec24caf3bed9b1685aee92a18769a0 *gd1980-11-29s1t08.flac
c577514376bd8836be0385b5a63bc35b *gd1980-11-29s1t09.flac
ccbe422940692390edcb40896a62835e *gd1980-11-29s1t10.flac
3e3f13764798ca7e5f37e7756cd865dc *gd1980-11-29s1t11.flac
0d7b2be320e3c8d060ee4e89d1a61882 *gd1980-11-29s1t12.flac
c631c36cac2c943d32d698d5c373d94b *gd1980-11-29s2t01.flac
fb4c3ab36d884088091c68f2ea1e137f *gd1980-11-29s2t02.flac
c3cddb5312cd84f8a90039f12fd9996b *gd1980-11-29s2t03.flac
1e3759608a576b61003aa2c0d749cb4a *gd1980-11-29s2t04.flac
088c714484897df8aec2b10ee858474c *gd1980-11-29s2t05.flac
94b68db7c563e8468768f916afe0d888 *gd1980-11-29s2t06.flac
f896892a41f08883a05f8bd037766679 *gd1980-11-29s2t07.flac
933086367857a80254eaf56e8daa63f6 *gd1980-11-29s2t08.flac
525b539eb805502a4ad5ce76eafe80bd *gd1980-11-29s2t09.flac
1b7ba31d260d64d02860342977ecfbc1 *gd1980-11-29s2t10.flac
febd5f3566049dc2b9bad1248b7e1a30 *gd1980-11-29s2t11.flac

Comments
Add Comment
Other Sources (comments)
no source info; via D. Barrick (2) Recording by Jim Wise: FOB... (3) flac16; Recording by... (1) flac16; Recording... (0) flac16; Recording... (0) flac16/48kHz;... (0) flac24; Cassette... (0) flac24; AUD: Unknown... (0) flac16; AUD: Unknown... (0) flac24; Set 2... (0) flac16; Set 2... (0)
Date User Comment