Browse Collections Artists Sources   Search Dates

Add Show    List Management    Help


Grateful Dead 07/01/73
Universal Amphitheatre, Universal City, CA
Comments Add Comment    Source Collectors    Add to Collection    Add to Want List    History
Source # 127232 Other Sources
Entered by Gary Field
Checksums flac-md5 , ffp
Disc Counts 0 / 0
Media Size
Uncompressed: 1.71 GB (1839163832 bytes)
Date Circulated
Date Added
03/01/2014
03/01/2014
Source Summary flac16; Matrix by Hunter Seamons using Final Cut Pro (FLAC > AIFF > Final Cut > AIFF CD tracking via Audacity > FLAC16 via xACT w/meta-tagging) 
  Archive
Source Information - Download Text | Download Zip
Grateful Dead
Universal Amphitheatre
Universal City, CA
July 1, 1973

Jerry Garcia - Lead Guitar, Vocals
Donna Jean Godchaux - Vocals
Keith Godchaux - Keyboards
Bill Kreutzmann - Drums
Phil Lesh - Electric Bass, Vocals
Bob Weir - Rhythm Guitar, Vocals



*Matrix*


-----------------------------------------------------------------
SBD (shnid=127028):

Recording Info:
SBD -> Master Reel -> Sound Devices 744T (24bit/96k)

Transfer Info:
WAV (24bit/96k) -> Samplitude Professional v11.2.1 -> FLAC/16
(3 Discs Audio / 1 DVD FLAC)

All Transfers and Mastering By Charlie Miller
[email protected]
February 10, 2014

[Cuts]:
Playing In The Band (19:01 - 19:18)
The Other One (3:18 - 3:42)

Notes:
-- Set 2 is seamless
[-- About 20 seconds between Row Jimmy and El Paso were repeated. This was removed.]

-----------------------------------------------------------------
AUD (shnid=88528):

MOTB Release: 0055 16/44.1
Release Date: 2007-11-16
Band: Grateful Dead
Date: 1973-07-01
Venue: Universal Amphitheatre
Location:  Universal City, CA
Source: FOB Audience Recording
Media: MAR = Unknown, R1 = Maxell UD 35-90
Lineage: Sony ECM-22P > Sony TC-770 > MAR > ?? [Dolby Encode] > R1
Transfer: R1 > Technics RS-1506 > TEAC AN-300 [Dolby Decode] > Grace Design Lunatec V3 [Pre-Only] > Korg MR-1000 > DSF [1-bit 5.6448 MHz Stereo] > Korg AudioGate > WAV [24/96]
Taped by: Harv Kaslow and Craig Todd
MAR > R1 Copy by: Rob Bertrando
R1 Provided by: Barry Glassberg
Transfer by: A. Egert
Mastering by: J. Waddell

Mastering Notes:
-- Edited, mastered and downsampled to 16/44.1 on the GEMS Edit Station.

Notes:
-- d2t02 - Cut in Row Jimmy at about 1:15; missing most of second verse and part of the subsequent chorus. No known patch source currently circulates.
-- d3t02 - Only the first verse of The Other One was performed, but preceded by an extended instrumental prologue. [35 second cut]

-----------------------------------------------------------------
Thank you to Charlie Miller for the SBD transfer,
to Harv Kaslow and Craig Todd for recording the show,
to Rob Bertrando, Barry Glassberg, A. Egert and J. Waddell for the AUD transfer,
to Rob Bertrando for pitch correction assistance,
and to John Bartlang for quality assurance.

Matrix by Hunter Seamons using Final Cut Pro (FLAC > AIFF > Final Cut > AIFF CD tracking via Audacity > FLAC16 via xACT w/meta-tagging)
March 1, 2014



Set I
-----
d1t01 - Mississippi Half-Step Uptown Toodeloo
d1t02 - Me And My Uncle
d1t03 - Sugaree
d1t04 - The Race Is On
d1t05 - Brown Eyed Women
d1t06 - Looks Like Rain
d1t07 - Don't Ease Me In
d1t08 - Big River
d1t09 - China Cat Sunflower ->
d1t10 - I Know You Rider
d1t11 - Around And Around

Set II
-----
d2t01 - "Have a safe and sane 4th, folks"
d2t02 - Playing In The Band
d2t03 - Row Jimmy
d2t04 - El Paso
d2t05 - Loose Lucy
d3t01 - Truckin' ->
d3t02 - Drums ->
d3t03 - The Other One ->
d3t04 - Wharf Rat ->
d3t05 - Me And Bobby McGee
d3t06 - Casey Jones



    length     expanded size    cdr  WAVE problems  fmt   ratio  filename
     9:04.49       96076892 B   ---   --   ---xx   flac  0.5285  gd73-07-01d1t01.flac
     3:38.06       38469356 B   ---   --   ---xx   flac  0.5765  gd73-07-01d1t02.flac
     8:09.74       86433692 B   ---   --   ---xx   flac  0.5220  gd73-07-01d1t03.flac
     4:18.38       45600620 B   ---   --   ---xx   flac  0.5227  gd73-07-01d1t04.flac
     5:50.74       61914092 B   ---   --   ---xx   flac  0.5160  gd73-07-01d1t05.flac
     7:38.38       80880620 B   ---   --   ---xx   flac  0.5199  gd73-07-01d1t06.flac
     4:10.26       44161196 B   ---   --   ---xx   flac  0.5641  gd73-07-01d1t07.flac
     5:28.46       57967436 B   ---   --   ---xx   flac  0.5451  gd73-07-01d1t08.flac
     8:13.49       87080492 B   ---   --   ---xx   flac  0.5758  gd73-07-01d1t09.flac
     5:56.29       62866652 B   ---   --   ---xx   flac  0.5679  gd73-07-01d1t10.flac
     5:13.47       55323788 B   ---   --   ---xx   flac  0.5982  gd73-07-01d1t11.flac
     0:44.03        7768700 B   ---   --   ---xx   flac  0.4906  gd73-07-01d2t01.flac
    25:57.26      274715996 B   ---   --   ---xx   flac  0.5344  gd73-07-01d2t02.flac
    10:03.14      106402172 B   ---   --   ---xx   flac  0.5279  gd73-07-01d2t03.flac
     6:18.73       66850940 B   ---   --   ---xx   flac  0.5033  gd73-07-01d2t04.flac
     9:13.74       97723292 B   ---   --   ---xx   flac  0.5510  gd73-07-01d2t05.flac
     8:34.65       90822524 B   ---   --   ---xx   flac  0.5803  gd73-07-01d3t01.flac
     1:46.36       18783116 B   ---   --   ---xx   flac  0.5730  gd73-07-01d3t02.flac
    19:51.03      210099500 B   ---   --   ---xx   flac  0.5330  gd73-07-01d3t03.flac
    10:41.10      113095964 B   ---   --   ---xx   flac  0.5179  gd73-07-01d3t04.flac
     6:07.61       64882316 B   ---   --   ---xx   flac  0.5452  gd73-07-01d3t05.flac
     6:43.66       71244476 B   ---   --   ---xx   flac  0.5855  gd73-07-01d3t06.flac
   173:46.07     1839163832 B                            0.5420  (22 files)


Show Checksums
flac-md5
e15f46f03988d150b1871c960bc4f1c6 *gd73-07-01d1t01.flac
45538c470453c20085b54f4a35a57ded *gd73-07-01d1t02.flac
f8d301157a0cdf93ee825fe5ffd5f5f0 *gd73-07-01d1t03.flac
044aead60b448118c40b923e50262e54 *gd73-07-01d1t04.flac
a46b0091d500ce84bb1848697032a4a0 *gd73-07-01d1t05.flac
64f973f587b8a414844a31dda045043f *gd73-07-01d1t06.flac
dec2a1299e9a3fd837bde4e8796040a4 *gd73-07-01d1t07.flac
7773c4ca0ad19ab40e6be285098bc2eb *gd73-07-01d1t08.flac
be0d0a88ee02461dc309a3d90fde2825 *gd73-07-01d1t09.flac
f8899abd2717154be589e9fbb257af35 *gd73-07-01d1t10.flac
a7d348545fd16cc8dbaa57b400d8dbc8 *gd73-07-01d1t11.flac
e1cdf1f3263fbed274bb4b6132a8a379 *gd73-07-01d2t01.flac
e03e91954a89ef3c29aba67799c3acb4 *gd73-07-01d2t02.flac
e0f293d809b30c9060c59f43f94a77a4 *gd73-07-01d2t03.flac
1c24959527d7be38c8ca2249cacf9cc5 *gd73-07-01d2t04.flac
7c75bf40d1d2ecfffadb3f285698500d *gd73-07-01d2t05.flac
5f55d2047be83447606e5f15826b59d1 *gd73-07-01d3t01.flac
00b2803774fa9e1bc0058ccbc3a935bc *gd73-07-01d3t02.flac
8171576abc4649d04e6e018bd720522b *gd73-07-01d3t03.flac
650f01aa57036597bdabab45ef8aabb3 *gd73-07-01d3t04.flac
89920665b3fd2ee36d099514593f8309 *gd73-07-01d3t05.flac
9de56159c7b47d651765529683785433 *gd73-07-01d3t06.flac
ffp
gd73-07-01d1t01.flac:1fb195ec1a5091c385c23c082bd6c670
gd73-07-01d1t02.flac:c634a145a8a4e48e8a236682a5880582
gd73-07-01d1t03.flac:45e2d5e40519d9d735030ee0e89c1ef8
gd73-07-01d1t04.flac:7ae77dca6c7dfac6b5df0950b8cc14c3
gd73-07-01d1t05.flac:15d46d1935557eccc9dd32a6d9c71c0c
gd73-07-01d1t06.flac:e68d2d8062693a26a73ac4cd919f1090
gd73-07-01d1t07.flac:609f4664cdf25a47ed0cf8c9a1f83000
gd73-07-01d1t08.flac:9e33d6844c45a0e0933e15002e80ddfe
gd73-07-01d1t09.flac:561fff8393f2d00bc6c40380cebff990
gd73-07-01d1t10.flac:6121e874be0db57ea091c1c4ca0367be
gd73-07-01d1t11.flac:fea4c9f947ec9ed8f4d4712c1ce2e618
gd73-07-01d2t01.flac:dc3f7e70162b01466e1650335d97cce5
gd73-07-01d2t02.flac:80ab920159fc897338b565e1091bb7d6
gd73-07-01d2t03.flac:cb4bba93cf553339a44f1d0c0d8e8118
gd73-07-01d2t04.flac:ed7a04468ba87404855c33c005cc1d86
gd73-07-01d2t05.flac:4a75c3846390ea200a2a6b668ac6df5b
gd73-07-01d3t01.flac:ea085090e67244fb91873b7119aeb7b1
gd73-07-01d3t02.flac:da3650e5895c5799ccf0f7ea67404862
gd73-07-01d3t03.flac:91fc66901de4a76ff31f3a7c6d4313dd
gd73-07-01d3t04.flac:13e7784ae98febf06da5f21d6faad8b9
gd73-07-01d3t05.flac:861b935752d6e224dd40bfcb445f3413
gd73-07-01d3t06.flac:9dea5a5d6f5efcbae71c7344eacbd97a

Comments
Add Comment
Other Sources (comments)
daud> Sony ec M22P mics... (3) flac16 Source: SBD >... (0) flac16 MOTB Release:... (1) flac24 MOTB Release:... (0) flac16; Matrix 2... (0) DTS Audio 5.1; SBD... (0) flac16; Recording... (0)
Date User Comment